Torrent Downloads - TorrentHuge



Do not remember me!

 
» » » Mike Oldfield - Five Miles Out (1982) 2013 Remastered DeluxeEdition 2CDs DVD

Mike Oldfield - Five Miles Out (1982) 2013 Remastered DeluxeEdition 2CDs DVD

http://i57.fastpic.ru/big/2013/1018/ee/ca2d5e83fa59efa9c84d4dc70bd572ee.jpg
Mike Oldfield - Five Miles Out (1982) [2013 Remastered, Deluxe Edition, 2CD+DVD]
EAC Rip | 2CDs | FLAC Image + Cue + Log => 860 MB | MP3 CBR @320 kbps => 325 MB | Full scans => 118 MB
DVD5 | VIDEO_TS | Video: NTSC (4:3) | Audio: LPCM, 2ch / Dolby AC3, 6ch / DTS, 6ch | 59 min | 3.42 GB
Label: Mercury Record Limited / Universal | Catalog.#: 374044-7 | Genre: Progressive rock

"Five Miles Out is the seventh record album by Mike Oldfield, released in 1982, at a time when his music was moving away from large-scale symphonic pieces towards a more accessible pop style. This 2013 reissue includes the original album remastered, plus a CD of live tracks from Cologne 1982, and a DVD of the album in 5.1 Surround Mix."CD 1 - The Original Album Remastered
01. Taurus II - 24:45
02. Family Man - 3:46
03. Orabidoo - 13:04
04. Mount Teidi - 4:11
05. Five Miles Out - 4:23
Bonus Tracks:
06. Waldberg (The Peak) [bonus track, B-side of single] - 3:28
07. Five Miles Out [demo version] - 4:11
Exact Audio Copy V1.0 beta 3 from 29. August 2011
EAC extraction logfile from 7. October 2013, 19:43
Mike Oldfield / Five Miles Out - Remaster 2013 CD1
Used drive : ATAPI iHAS124 B Adapter: 2 ID: 0
Read mode : Secure
Utilize accurate stream : Yes
Defeat audio cache : Yes
Make use of C2 pointers : No
Read offset correction : 6
Overread into Lead-In and Lead-Out : No
Fill up missing offset samples with silence : Yes
Delete leading and trailing silent blocks : No
Null samples used in CRC calculations : Yes
Used interface : Native Win32 interface for Win NT & 2000
Used output format : User Defined Encoder
Selected bitrate : 1024 kBit/s
Quality : High
Add ID3 tag : No
Command line compressor : C:Program Files (x86)Exact Audio CopyFLACFLAC.EXE
Additional command line options : -8 -V -T "ARTIST=%artist%" -T "TITLE=%title%" -T "ALBUM=%albumtitle%" -T "DATE=%year%" -T "TRACKNUMBER=%tracknr%" -T "GENRE=%genre%" -T "PERFORMER=%albuminterpret%" -T "COMPOSER=%composer%" %haslyrics%--tag-from-file=LYRICS="%lyricsfile%"%haslyrics% -T "ALBUMARTIST=%albumartist%" -T "DISCNUMBER=%cdnumber%" -T "TOTALDISCS=%totalcds%" -T "TOTALTRACKS=%numtracks%" -T "COMMENT=%comment%" %source% -o %dest%
TOC of the extracted CD
Track | Start | Length | Start sector | End sector
---------------------------------------------------------
1 | 0:00.00 | 24:45.00 | 0 | 111374
2 | 24:45.00 | 3:45.58 | 111375 | 128307
3 | 28:30.58 | 13:03.72 | 128308 | 187104
4 | 41:34.55 | 4:10.47 | 187105 | 205901
5 | 45:45.27 | 4:22.55 | 205902 | 225606
6 | 50:08.07 | 3:27.41 | 225607 | 241172
7 | 53:35.48 | 4:10.43 | 241173 | 259965
Range status and errors
Selected range
Filename G:CDMike Oldfield - Five Miles Out - Remaster 2013 CD1.wav
Peak level 98.8 %
Extraction speed 6.0 X
Range quality 100.0 %
Test CRC 8D15F62C
Copy CRC 8D15F62C
Copy OK
No errors occurred

AccurateRip summary

Track 1 not present in database
Track 2 not present in database
Track 3 not present in database
Track 4 not present in database
Track 5 not present in database
Track 6 not present in database
Track 7 not present in database

None of the tracks are present in the AccurateRip database
End of status report
==== Log checksum B1517D36935983B982454AEC3D56DD688153EFF28CA1988BAC058D7EA58CEB2B ====
[CUETools log; Date: 10/16/2013 6:00:47 PM; Version: 2.1.4]
[AccurateRip ID: 0014be4c-00728cf2-5b0d8a07] found.
Track [ CRC | V2 ] Status
01 [fd51c87d|2b91a76a] (00+14/14) Accurately ripped
02 [7538378a|5658bc76] (00+14/14) Accurately ripped
03 [3caf7aaf|9d6879ae] (00+14/14) Accurately ripped
04 [094eaf4e|e533fdbe] (00+14/14) Accurately ripped
05 [a52ffa1c|3d66077f] (00+14/14) Accurately ripped
06 [c46c0ab6|8a65e6a3] (00+14/14) Accurately ripped
07 [4ccbfb1b|13bb32cd] (00+14/14) Accurately ripped
Track Peak [ CRC32 ] [W/O NULL] [ LOG ]
-- 98.8 [8D15F62C] [357A79FB] CRC32
01 98.8 [98198F71] [362574A5]
02 98.8 [A67D9197] [CB73F7CA]
03 98.8 [84E301F0] [B32B9F84]
04 96.5 [08FA42E2] [DB1E1B65]
05 98.8 [E6851320] [E9492231]
06 98.0 [0FB51DFD] [CDA2D695]
07 98.3 [834108D6] [241E52CF]
CD 2 - Live in Cologne, 4th December 1982
01. Tubular Bells Part One [with Maggie Reilly] [live] - 23:12
02. Sheba [with Maggie Reilly] [live] - 4:23
03. Mirage [with Maggie Reilly] [live] - 5:38
04. Family Man [with Maggie Reilly] [live] - 3:45
05. Taurus II [with Maggie Reilly] [live] - 25:33
06. Mount Teidi [live] - 4:21
07. Five Miles Out [with Maggie Reilly] [live] - 7:24
08. Guilty [live] - 5:38
Exact Audio Copy V1.0 beta 3 from 29. August 2011
EAC extraction logfile from 7. October 2013, 20:12
Mike Oldfield / Five Miles Out - Remaster 2013 CD2
Used drive : ATAPI iHAS124 B Adapter: 2 ID: 0
Read mode : Secure
Utilize accurate stream : Yes
Defeat audio cache : Yes
Make use of C2 pointers : No
Read offset correction : 6
Overread into Lead-In and Lead-Out : No
Fill up missing offset samples with silence : Yes
Delete leading and trailing silent blocks : No
Null samples used in CRC calculations : Yes
Used interface : Native Win32 interface for Win NT & 2000
Used output format : User Defined Encoder
Selected bitrate : 1024 kBit/s
Quality : High
Add ID3 tag : No
Command line compressor : C:Program Files (x86)Exact Audio CopyFLACFLAC.EXE
Additional command line options : -8 -V -T "ARTIST=%artist%" -T "TITLE=%title%" -T "ALBUM=%albumtitle%" -T "DATE=%year%" -T "TRACKNUMBER=%tracknr%" -T "GENRE=%genre%" -T "PERFORMER=%albuminterpret%" -T "COMPOSER=%composer%" %haslyrics%--tag-from-file=LYRICS="%lyricsfile%"%haslyrics% -T "ALBUMARTIST=%albumartist%" -T "DISCNUMBER=%cdnumber%" -T "TOTALDISCS=%totalcds%" -T "TOTALTRACKS=%numtracks%" -T "COMMENT=%comment%" %source% -o %dest%
TOC of the extracted CD
Track | Start | Length | Start sector | End sector
---------------------------------------------------------
1 | 0:00.00 | 23:12.28 | 0 | 104427
2 | 23:12.28 | 4:22.55 | 104428 | 124132
3 | 27:35.08 | 5:37.69 | 124133 | 149476
4 | 33:13.02 | 3:45.24 | 149477 | 166375
5 | 36:58.26 | 25:32.61 | 166376 | 281336
6 | 62:31.12 | 4:21.26 | 281337 | 300937
7 | 66:52.38 | 7:23.70 | 300938 | 334232
8 | 74:16.33 | 5:38.07 | 334233 | 359589
Range status and errors
Selected range
Filename G:CDMike Oldfield - Five Miles Out - Remaster 2013 CD2.wav
Peak level 98.7 %
Extraction speed 6.7 X
Range quality 100.0 %
Test CRC 8E78C0E3
Copy CRC 8E78C0E3
Copy OK
No errors occurred

AccurateRip summary

Track 1 accurately ripped (confidence 11) [71DB51FE] (AR v2)
Track 2 accurately ripped (confidence 11) [C96FCB0C] (AR v2)
Track 3 accurately ripped (confidence 11) [1B7BA9C1] (AR v2)
Track 4 accurately ripped (confidence 10) [1C320D8B] (AR v2)
Track 5 accurately ripped (confidence 11) [3A671CF0] (AR v2)
Track 6 accurately ripped (confidence 11) [7E14787C] (AR v2)
Track 7 accurately ripped (confidence 11) [18D66080] (AR v2)
Track 8 accurately ripped (confidence 11) [E79EF12F] (AR v2)

All tracks accurately ripped
End of status report
==== Log checksum C7BB879C842A37E31867CB0FF3C50BC9BA154B1183972A202F60021BCF961069 ====
[CUETools log; Date: 10/16/2013 6:09:16 PM; Version: 2.1.4]
[AccurateRip ID: 001bc760-00b2c4de-7412ba08] found.
Track [ CRC | V2 ] Status
01 [8b6fb614|71db51fe] (00+11/11) Accurately ripped
02 [11f2a35c|c96fcb0c] (00+11/11) Accurately ripped
03 [bad8ebf9|1b7ba9c1] (00+11/11) Accurately ripped
04 [efbe90d9|1c320d8b] (00+10/10) Accurately ripped
05 [e486b838|3a671cf0] (00+11/11) Accurately ripped
06 [09e00611|7e14787c] (00+11/11) Accurately ripped
07 [1d75ed99|18d66080] (00+11/11) Accurately ripped
08 [f96e9571|e79ef12f] (00+11/11) Accurately ripped
Track Peak [ CRC32 ] [W/O NULL] [ LOG ]
-- 98.7 [8E78C0E3] [B70F6470] CRC32
01 93.9 [B5FA357C] [3BD02C7F]
02 76.9 [4E65B61C] [B377408C]
03 98.7 [9EB3AFEC] [B42A3B34]
04 78.4 [00A524D2] [7B67CE68]
05 92.6 [250B889F] [2C68E321]
06 74.9 [FB5402FD] [7607AB47]
07 81.1 [58C21B17] [A13F236E]
08 83.8 [BFA37E3B] [5E1BFD98]
DVD
Five Miles Out - 2013 5.1 Surround Mix:
01. Taurus II - 24:45
02. Family Man - 3:46
03. Orabidoo - 13:04
04. Mount Teidi - 4:11
05. Five Miles Out - 4:23
Extra Visual Content
01. Five Miles Out (Promotional Video) - 4:17
02. Five Miles Out (Six Fifty Five Special BBC TV - 28th July 1982) - 4:13
03. Mistake (Six Fifty Five Special BBC TV - 28th July 1982) - 3:19
Title: FIVE_MILES_OUT_DISC3
Size: 3.33 Gb ( 3 496 146 KBytes ) - DVD-5
Enabled regions: 1, 2, 3, 4, 5, 6, 8
VTS_01 :
Play Length: 00:47:56
Video: NTSC 4:3 (720x480) VBR
Audio:
Not specified (Dolby AC3, 6 ch)
Not specified (DTS, 6 ch)
VTS_02 :
Play Length: 00:11:39
Video: NTSC 4:3 (720x480) VBR
Audio:
Not specified (LinearPCM, 2 ch)
VTS_03 :
Play Length: 00:00:07
Video: NTSC 4:3 (720x480) VBR
VTS_04 :
Play Length: 00:00:12
Video: NTSC 4:3 (720x480) VBR
Audio:
Not specified (LinearPCM, 2 ch)
Menu Video:
NTSC 16:9 (720x480) VBR
Auto Pan&Scan, Auto Letterboxed
Menu Subtitles:
Not specified
Menu English Language Unit :
Root Menu
Personnel
* Mike Oldfield - guitars, bass, keyboards, vocals, producer, engineer
* Richard Barrie - technical assistant
* Graham Broad - drums
* Tim Cross - keyboards
* Rick Fenn - guitars
* Martyn Ford - conductor for strings
* Mike Frye - percussion
* Richard Mainwaring - engineer
* Paddy Moloney - Uilleann pipes
* Tom Newman - engineer
* Maggie Reilly - vocals
* Carl Palmer - percussion
* Morris Pert - percussion, keyboards, arranger for strings
* Fin Costello - photographer
Original Released: 19 March 1982
Recorded Date: Buckinghamshire, 1981-1982
Remastered Released Date: 2013
Format: 2xCD + DVD, Deluxe Edition Album, Remastered
Length: 57:46 (CD1) | 1:19:55 (CD2) | 59:35 (DVD)
http://i57.fastpic.ru/big/2013/1018/40/ba7c2dcc0e39a337bdc97c5eb2d59640.jpg
http://i57.fastpic.ru/big/2013/1018/00/96c4af861790d68b4e71859194257a00.jpg
Screenshots
http://i59.fastpic.ru/big/2013/1018/d3/da303db504920da860aa9aa6484899d3.jpg
http://i60.fastpic.ru/big/2013/1018/65/56fe8c6d0cfbc881ac4695b1e7ce5065.jpg
http://i58.fastpic.ru/big/2013/1018/5c/d6ae0fcafc54432df6711c0493e1b35c.jpg
http://i57.fastpic.ru/big/2013/1018/c5/5b6081c02df7ebc26f33ef6a16ae75c5.jpg
http://i58.fastpic.ru/big/2013/1018/b3/0f7f174fa951ce0b8f140d18f04509b3.jpg
Ripped by gerrV
If you have any questions about this publication, please send me a private message.
password: www.AvaxHome.ru

RyuShare:
http://ryushare.com/s9rsk1ffp8a1/cpk28.MOFMOR2013CD1Lossless.rar
http://ryushare.com/xze79v6ni0bl/cpk28.MOFMOR2013CD1mp3.rar
http://ryushare.com/k0lrleu5u32w/cpk28.MOFMOR2013CD2Lossless.rar
http://ryushare.com/1dfbtdn4cxl1/cpk28.MOFMOR2013CD2mp3.rar
http://ryushare.com/ja8noiryp4y5/cpk28.MOFMOR2013DVD.part1.rar
http://ryushare.com/9a5azhp95btc/cpk28.MOFMOR2013DVD.part2.rar
http://ryushare.com/aag5n48t98yy/cpk28.MOFMOR2013DVD.part3.rar
http://ryushare.com/iupsojuls9la/cpk28.MOFMOR2013DVD.part4.rar
http://ryushare.com/pkevej638s0r/cpk28.MOFMOR2013DVD.part5.rar
http://ryushare.com/0emhawtvdto2/cpk28.MOFMOR2013DVD.part6.rar
http://ryushare.com/d9b99206kilp/cpk28.MOFMOR2013DVD.part7.rar
http://ryushare.com/u536exf34hbx/cpk28.MOFMOR2013Scans.rar
RapidGator:
http://rapidgator.net/file/50a21291620d9e4040f24ca56af4c3d9/cpk28.MOFMOR2013CD1Lossless.rar.html
http://rapidgator.net/file/0cfcc2b214d2db4fd43b1f2b796542b1/cpk28.MOFMOR2013CD1mp3.rar.html
http://rapidgator.net/file/1faa5f40890d93d56b12c2a0cc9e6fb1/cpk28.MOFMOR2013CD2Lossless.rar.html
http://rapidgator.net/file/6157fa9dd32cc9c68836c66df6d66497/cpk28.MOFMOR2013CD2mp3.rar.html
http://rapidgator.net/file/b2b3f3be2f99a58f8980db2140eb4b5a/cpk28.MOFMOR2013DVD.part1.rar.html
http://rapidgator.net/file/d56b7309d8a127eee68db1ee02755585/cpk28.MOFMOR2013DVD.part2.rar.html
http://rapidgator.net/file/a96cc8565a8392c017ed6b62b37fe0d4/cpk28.MOFMOR2013DVD.part3.rar.html
http://rapidgator.net/file/8c0603880af734fae81ecc661363200e/cpk28.MOFMOR2013DVD.part4.rar.html
http://rapidgator.net/file/7905b171c0ac0385a134896c9d5b052e/cpk28.MOFMOR2013DVD.part5.rar.html
http://rapidgator.net/file/47819710676fa59281bdeef2fef87d9f/cpk28.MOFMOR2013DVD.part6.rar.html
http://rapidgator.net/file/f94e7ccd1746cb28fcad3b1614ef6ff1/cpk28.MOFMOR2013DVD.part7.rar.html
http://rapidgator.net/file/9f10b2f6fdfb27f75b9bf8800d581279/cpk28.MOFMOR2013Scans.rar.html
Uploaded:
http://uploaded.net/file/dqx1szcn/cpk28.MOFMOR2013CD1Lossless.rar
http://uploaded.net/file/mz0ta7gm/cpk28.MOFMOR2013CD1mp3.rar
http://uploaded.net/file/ic5elqaz/cpk28.MOFMOR2013CD2Lossless.rar
http://uploaded.net/file/vq2wkbv2/cpk28.MOFMOR2013CD2mp3.rar
http://uploaded.net/file/chmi9j87/cpk28.MOFMOR2013DVD.part1.rar
http://uploaded.net/file/icypf76d/cpk28.MOFMOR2013DVD.part2.rar
http://uploaded.net/file/8zyy4ao6/cpk28.MOFMOR2013DVD.part3.rar
http://uploaded.net/file/n7ofg69u/cpk28.MOFMOR2013DVD.part4.rar
http://uploaded.net/file/bw58jd5v/cpk28.MOFMOR2013DVD.part5.rar
http://uploaded.net/file/8nzrl726/cpk28.MOFMOR2013DVD.part6.rar
http://uploaded.net/file/7zvx6wv2/cpk28.MOFMOR2013DVD.part7.rar
http://uploaded.net/file/ly9pqy0i/cpk28.MOFMOR2013Scans.rar
TurboBit:
http://turbobit.net/q7zw3udbhj60/cpk28.MOFMOR2013CD1Lossless.rar.html
http://turbobit.net/dl3lggm6aao3/cpk28.MOFMOR2013CD1mp3.rar.html
http://turbobit.net/85ogpuzirg1s/cpk28.MOFMOR2013CD2Lossless.rar.html
http://turbobit.net/m4yskcmfi0mc/cpk28.MOFMOR2013CD2mp3.rar.html
http://turbobit.net/gqerewjzx6e8/cpk28.MOFMOR2013DVD.part1.rar.html
http://turbobit.net/d0n009x3t9zk/cpk28.MOFMOR2013DVD.part2.rar.html
http://turbobit.net/ckhlb55gwjrf/cpk28.MOFMOR2013DVD.part3.rar.html
http://turbobit.net/5yql65vhatvq/cpk28.MOFMOR2013DVD.part4.rar.html
http://turbobit.net/3mt7omnefeoy/cpk28.MOFMOR2013DVD.part5.rar.html
http://turbobit.net/4ep8j7yqf5b2/cpk28.MOFMOR2013DVD.part6.rar.html
http://turbobit.net/nk0gxc2no8sk/cpk28.MOFMOR2013DVD.part7.rar.html
http://turbobit.net/gbfao674n68c/cpk28.MOFMOR2013Scans.rar.html


Free Full Download Mike Oldfield - Five Miles Out (1982) 2013 Remastered DeluxeEdition 2CDs DVD form MediaFire.com link RapidShare, ifile.it, Uploaded.to, Zippyshare, FileSonic, turbobit.net, ul.to, ORON, DepositFiles, hotfile.com, rapidgator.net, letitbit.net, extabit.com, filefactory.com. Mike Oldfield - Five Miles Out (1982) 2013 Remastered DeluxeEdition 2CDs DVD Torrent Download with keygen, crack, serial, dvdrip, hdrip, HD, 720p, 2014, 2015
Mike Oldfield | Mike Oldfield Two Sides M A | Mike Oldfield Incantations | Mike Oldfield Qe Cd Deluxe Edition Mp Flac | Frances 1982 | Frances 1982 | Frances 1982 720P | Peter Hammill Enter K 1982 | Peter Hammill Enter K 1982 | Sally Oldfield Cantadora

Please login or register

Dear visitor, you are browsing our website as Guest. We strongly recommend you to register and login to view hidden contents.

Comments (0)