Torrent Downloads - TorrentHuge



Do not remember me!

 
» » » José Luis Fernández Ledesma - 6 Studio Albums (1996-2007)

José Luis Fernández Ledesma - 6 Studio Albums (1996-2007)


José Luis Fernández Ledesma - 6 Studio Albums (1996-2007)
EAC Rip | APE (image+.cue+log) - 1,9 GB | MP3 CBR 320 kbps (LAME 3.93) - 888 MB | Covers - 124 MB
Genre: Progressive Folk Rock/Avant-Prog | RAR 3% Rec. | Label: Musea, Luna Negra

José Luis Fernández Ledesma is a big name in the Mexican avant-garde musical scene. He is acknowledged as an adventurous creator and a proficient musician: his performing skills include guitars, keyboards, various ethnic wind, string and percussion instruments, something like a Mike Oldfield with a RIO heart. His first steps in the world of prog took place in Nirgal Vallis, a band contemporary of Iconoclast and others, that never got to release a proper LP. After the band disbanded, Fernández Ledesma began his solo venture determined to explore his unique musical vision. Singer/keyboardist Margarita Botello is his recurrent partner in almost all his records.
The writing and arranging modus operandi for Fernández Ledesma's material is profoundly based on atmospheres, going from the ethereal to the somber and from the dreamy to the inscrutable, always dense and mysterious, at times colorful, other times grayish. The combination of acoustic and electric instruments bears enough amounts of mixing console processes as to make the original sounds go somewhere else. Instead of using traditional instruments according to the standards of fusion and prog-folk, what Fernández Ledesma does is incorporate these ancient items as parts of the sonic amalgam that would match his modernistic vision. Influences range from krautrock (Popol Vuh, Can, early 70s TD) to RIO (Art Bearns, Henry Cow, Univers Zero), as well as the avant-garde chamber music pioneered by Cage, Stockhausen and others. "Al Filo" comprises a dominant sinister tendency, while "Sol Central" displays a more developed sense of colorfulness. Albums such as "La Paciencia de Job" and "Híbridos" may lean closer to one trend or another. "Designios" stands out as a special exception to the rule, since its repertoire is a venture in the fields of symphonic-meets-folk prog, in this way exposing a not-so-usual melodic side of Fernández Ledesma - it includes new versions of two old Nirgal Vallis tracks.



José Luis Fernández Ledesma Q - Motivos Para Perderse (1996)
EAC Rip | FLAC (image+.cue+log) - 292 MB | MP3 CBR 320 kbps (LAME 3.93) - 123 MB | Covers - 15 MB
Genre: Progressive Folk Rock | RAR 3% Rec. | Label: Musea (FGBG 4190.AR)

Tracklist:
01. El Acueducto
02. La Montaña de los Encuentros
03. Ottla
04. La Ciudad de las Mil Columnas
05. La Espiral
06. Remanso
07. El Árbol de Índigo
08. La Huida
09. Relatos del Agua
10. Motivos Para Perderse

Total time: 52:29

EAC log
Exact Audio Copy V0.99 prebeta 5 from 4. May 2009

Отчёт EAC об извлечении, выполненном 18. февраля 2010, 22:22

Unknown Artist / Unknown Title

Дисковод: ASUS DRW-1814BLT Adapter: 0 ID: 1

Режим чтения : Достоверность
Использование точного потока : Да
Отключение кэша аудио : Да
Использование указателей C2 : Нет

Коррекция смещения при чтении : 6
Способность читать области Lead-in и Lead-out : Нет
Заполнение пропущенных сэмплов тишиной : Да
Удаление блоков с тишиной в начале и конце : Нет
При вычислениях CRC использовались нулевые сэмплы : Нет
Интерфейс : Установленный внешний ASPI-интерфейс

Выходной формат : Пользовательский кодировщик
Выбранный битрейт : 1024 kBit/s
Качество : Высокий
Добавление ID3-тэга : Нет
Утилита сжатия : C:Program FilesExact Audio CopyFLACFLAC.EXE
Дополнительные параметры : -6 -V -T "ARTIST=%a" -T "TITLE=%t" -T "ALBUM=%g" -T "DATE=%y" -T "TRACKNUMBER=%n" -T "GENRE=%m" -T "COMMENT=%e" %s -o %d TOC извлечённого CD

Трек | Старт | Длительность | Начальный сектор | Конечный сектор
---------------------------------------------------------------------
1 | 0:00.00 | 6:32.20 | 0 | 29419
2 | 6:32.20 | 4:09.36 | 29420 | 48130
3 | 10:41.56 | 5:12.17 | 48131 | 71547
4 | 15:53.73 | 2:10.22 | 71548 | 81319
5 | 18:04.20 | 3:18.60 | 81320 | 96229
6 | 21:23.05 | 1:05.65 | 96230 | 101169
7 | 22:28.70 | 10:50.00 | 101170 | 149919
8 | 33:18.70 | 4:08.17 | 149920 | 168536
9 | 37:27.12 | 6:08.49 | 168537 | 196185
10 | 43:35.61 | 8:52.69 | 196186 | 236154 Характеристики диапазона извлечения и сообщения об ошибках

Выбранный диапазон

Имя файла M:Downloads11JOSE LUIS FERNANDEZ LEDASMA Q. Motivos Para Perderse(1996)JOSE LUIS FERNANDEZ LEDASMA Q. Motivos Para Perderse(1996).wav

Пиковый уровень 100.0 %
Качество диапазона 100.0 %
CRC копии ABA55BB8
Копирование... OK

Ошибок не произошло


AccurateRip: сводка

Трек 1 нет в базе данных
Трек 2 нет в базе данных
Трек 3 нет в базе данных
Трек 4 нет в базе данных
Трек 5 нет в базе данных
Трек 6 нет в базе данных
Трек 7 нет в базе данных
Трек 8 нет в базе данных
Трек 9 нет в базе данных
Трек 10 нет в базе данных

Ни одного трека нет в базе AccurateRip

Конец отчёта

CUETools log
[CUETools log; Date: 22.12.2014 20:01:35; Version: 2.1.4]
[CTDB TOCID: sIC4q_0q20gz.9PQBdo994o14To-] found.
Track | CTDB Status
1 | (2/2) Accurately ripped
2 | (2/2) Accurately ripped
3 | (2/2) Accurately ripped
4 | (2/2) Accurately ripped
5 | (2/2) Accurately ripped
6 | (2/2) Accurately ripped
7 | (2/2) Accurately ripped
8 | (2/2) Accurately ripped
9 | (2/2) Accurately ripped
10 | (2/2) Accurately ripped
[AccurateRip ID: 0011fbf9-00904eca-7d0c4c0a] found.
Track [ CRC | V2 ] Status
01 [0153afc0|059fb919] (2+0/2) Accurately ripped
02 [54036172|0f551612] (2+0/2) Accurately ripped
03 [cde6bf9d|735a677c] (2+0/2) Accurately ripped
04 [38904a1d|45af0140] (2+0/2) Accurately ripped
05 [167cfd96|e85a2862] (2+0/2) Accurately ripped
06 [35487222|0f248def] (2+0/2) Accurately ripped
07 [f068a98c|740e7c74] (2+0/2) Accurately ripped
08 [6992a745|e3eac59a] (2+0/2) Accurately ripped
09 [7d2ca170|824d6f06] (2+0/2) Accurately ripped
10 [12ba2b9c|e0be9b54] (2+0/2) Accurately ripped

Track Peak [ CRC32 ] [W/O NULL] [ LOG ]
-- 100,0 [F90AA3DE] [ABA55BB8] W/O NULL
01 94,2 [742FC3A6] [C36FA484]
02 99,8 [01A21130] [C61CFED9]
03 94,4 [81C83C8C] [066F48E0]
04 100,0 [85872957] [7B9A9BE8]
05 94,3 [3EF76C21] [9D92A8DE]
06 12,0 [4272852F] [3B0F8EB5]
07 100,0 [F2D463CA] [B283F6FC]
08 100,0 [50A33588] [C4C440A2]
09 91,7 [354D7673] [23DF4854]
10 98,4 [B6B9769C] [1D57524A]


José Luis Fernández Ledesma - Extractos (1997)
EAC Rip | APE (image+.cue+log) - 310 MB | MP3 CBR 320 kbps (LAME 3.93) - 157 MB | Covers - 15 MB
Genre: Progressive Folk Rock | RAR 3% Rec. | Label: Luna Negra (CDLN-03)

Tracklist:
01. Invocación Alba Lunga (fragmento)
02. Perito en Lunas
03. Los Amorosos
04. Irulan
05. Presagio
06. Las Esquinas del Tiempo
07. Umbrío por la Pena
08. La Cofradía (fragmento)
09. Días como Agua (fragmento)
10. La Nave Blanca
11. En el Corazón del Hombre
12. Marzo de 142
13. La Tarde del Traje Morado (fragmento)

Total time: 01:06:59

EAC log
Exact Audio Copy V0.99 prebeta 1 from 25. May 2007

EAC extraction logfile from 12. September 2010, 14:05

Josй Luis Fernбndez Ledesma / Extractos

Used drive : HL-DT-STDVD+-RW GSA-H21L Adapter: 0 ID: 0

Read mode : Secure
Utilize accurate stream : Yes
Defeat audio cache : Yes
Make use of C2 pointers : No

Read offset correction : 102
Overread into Lead-In and Lead-Out : Yes
Fill up missing offset samples with silence : Yes
Delete leading and trailing silent blocks : No
Used interface : Native Win32 interface for Win NT & 2000

Used output format : Monkey's Audio Lossless Encoder
Selected bitrate : Extra High Lossless Compression
Quality : High
Add ID3 tag : Yes
Command line compressor : C:Arquivos de programasMonkey's AudioMAC.exe TOC of the extracted CD

Track | Start | Length | Start sector | End sector
---------------------------------------------------------
1 | 0:00.00 | 5:18.34 | 0 | 23883
2 | 5:18.34 | 3:02.16 | 23884 | 37549
3 | 8:20.50 | 2:06.09 | 37550 | 47008
4 | 10:26.59 | 6:20.11 | 47009 | 75519
5 | 16:46.70 | 5:22.07 | 75520 | 99676
6 | 22:09.02 | 5:58.18 | 99677 | 126544
7 | 28:07.20 | 6:22.29 | 126545 | 155223
8 | 34:29.49 | 1:33.70 | 155224 | 162268
9 | 36:03.44 | 4:50.06 | 162269 | 184024
10 | 40:53.50 | 6:09.13 | 184025 | 211712
11 | 47:02.63 | 5:49.54 | 211713 | 237941
12 | 52:52.42 | 4:16.62 | 237942 | 257203
13 | 57:09.29 | 4:17.38 | 257204 | 276516
14 | 61:26.67 | 5:32.15 | 276517 | 301431 Range status and errors

Selected range

Filename C:Documents and SettingsuserpcMeus documentosCDsJosй Luis Fernбndez Ledesma - Extractos(1997)[Mexico].apeJosй Luis Fernбndez Ledesma - Extractos.wav

Peak level 100.0 %
Range quality 100.0 %
Copy CRC DB07685E
Copy OK


AccurateRip summary

Track 1 not present in database
Track 2 not present in database
Track 3 not present in database
Track 4 not present in database
Track 5 not present in database
Track 6 not present in database
Track 7 not present in database
Track 8 not present in database
Track 9 not present in database
Track 10 not present in database
Track 11 not present in database
Track 12 not present in database
Track 13 not present in database
Track 14 not present in database

No errors occurred

End of status report

CUETools log
[CUETools log; Date: 22.12.2014 20:05:57; Version: 2.1.4]
[CTDB TOCID: Vews.djS1Obmz2GvJ.XtbhVIvWA-] disk not present in database.
[AccurateRip ID: 0021841f-01693850-b20fb30e] disk not present in database.

Track Peak [ CRC32 ] [W/O NULL] [ LOG ]
-- 100,0 [DB07685E] [17C29E23] CRC32
01 99,9 [8DE6E660] [6AE5A6C4]
02 58,5 [EB0E8A93] [B9A4D38E]
03 55,1 [08DC3000] [F618AF7A]
04 73,2 [34F7F386] [772E814F]
05 87,9 [3FBD5EB0] [02AB8AAA]
06 66,2 [CC884F94] [73C27958]
07 72,5 [CD2F97E2] [E74B4D6A]
08 60,7 [F59668FC] [B9B39237]
09 60,3 [A62CF06B] [0A927733]
10 67,7 [75AD6157] [67FA06B8]
11 88,9 [F47E9277] [F362E7E5]
12 70,3 [D2227193] [AF3DDDE7]
13 60,2 [82156E86] [B62FC5AE]
14 100,0 [A4F9F702] [BF10CFE5]


José Luis Fernández Ledesma - Al Filo (2002)
EAC Rip | APE (image+.cue+log) - 299 MB | MP3 CBR 320 kbps (LAME 3.93) - 164 MB | Covers - 19 MB
Genre: Progressive Folk Rock/Avant-Prog | RAR 3% Rec. | Label: Luna Negra (CDLN-19)

Tracklist:
01. Las Siete Columnas
02. Presencias
03. Oniromante
04. Espejismo
05. El Triangulo
06. Ojo de Venado
07. Las Cuatro Imagenes
I. La Noria
II. Dia Interno
III. Mirondome Mirarme
IV. Una Larga Agonia
08. El Enyerbao (pilon)

Total time: 01:09:52

EAC log
Exact Audio Copy V0.99 prebeta 1 from 25. May 2007

EAC extraction logfile from 20. April 2010, 2:11

Jose Luis Fernandez Ledesma / AL FILO

Used drive : HL-DT-STDVD+-RW GSA-H21L Adapter: 0 ID: 0

Read mode : Secure
Utilize accurate stream : Yes
Defeat audio cache : Yes
Make use of C2 pointers : No

Read offset correction : 102
Overread into Lead-In and Lead-Out : Yes
Fill up missing offset samples with silence : Yes
Delete leading and trailing silent blocks : No
Used interface : Native Win32 interface for Win NT & 2000

Used output format : Monkey's Audio Lossless Encoder
Selected bitrate : Extra High Lossless Compression
Quality : High
Add ID3 tag : Yes
Command line compressor : C:Arquivos de programasMonkey's AudioMAC.exe TOC of the extracted CD

Track | Start | Length | Start sector | End sector
---------------------------------------------------------
1 | 0:00.00 | 10:10.41 | 0 | 45790
2 | 10:10.41 | 3:40.47 | 45791 | 62337
3 | 13:51.13 | 5:09.36 | 62338 | 85548
4 | 19:00.49 | 7:14.02 | 85549 | 118100
5 | 26:14.51 | 7:46.15 | 118101 | 153065
6 | 34:00.66 | 6:20.19 | 153066 | 181584
7 | 40:21.10 | 25:02.02 | 181585 | 294236
8 | 65:23.12 | 4:29.02 | 294237 | 314413 Range status and errors

Selected range

Filename C:Documents and SettingsuserpcMeus documentosPendriveJose Luis Fernandez Ledesma - AL FILO(2002)[Mexico].apeJose Luis Fernandez Ledesma - AL FILO.wav

Peak level 96.6 %
Range quality 100.0 %
Copy CRC 05B2614C
Copy OK


AccurateRip summary

Track 1 not present in database
Track 2 not present in database
Track 3 not present in database
Track 4 not present in database
Track 5 not present in database
Track 6 not present in database
Track 7 not present in database
Track 8 not present in database

No errors occurred

End of status report

CUETools log
[CUETools log; Date: 22.12.2014 20:07:13; Version: 2.1.4]
[CTDB TOCID: dGjoACZL9XaACaXz5PZ92uuEAxk-] disk not present in database.
[AccurateRip ID: 001326a9-0082fcdb-5a106008] disk not present in database.

Track Peak [ CRC32 ] [W/O NULL] [ LOG ]
-- 96,6 [05B2614C] [96C48963] CRC32
01 94,4 [FDDB20E8] [D18CA384]
02 25,6 [98333788] [7C9AA98E]
03 95,9 [F38F5D50] [8CDB69B3]
04 60,5 [2F2057BC] [E54017AF]
05 91,8 [051E1814] [7D6C379E]
06 96,6 [27DA34AA] [58281140]
07 96,6 [59ADF553] [4CCB6A9B]
08 96,6 [03782533] [7CF6ABE4]


José Luis Fernández Ledesma - Designios (2003)
EAC Rip | APE (image+.cue+log) - 320 MB | MP3 CBR 320 kbps (LAME 3.93) - 134 MB | Covers - 27 MB
Genre: Progressive Folk Rock | RAR 3% Rec. | Label: Luna Negra/Musea (CDLN-21, FGBG 4484.AR)

Tracklist:
01. Ave Luz
02. Muro Ciego
03. Saena
04. Cancion Para un Dia
05. Abismo
06. Los Designios de Geminis
07. Punta Cometa

Total time: 56:51

EAC log
Exact Audio Copy V1.0 beta 3 from 29. August 2011

Отчёт EAC об извлечении, выполненном 28. апреля 2013, 20:12

Ledesma, Jose Luis Fernandez / DESIGNIOS

Дисковод: ASUS SDRW-08D1S-U Adapter: 1 ID: 0

Режим чтения : Достоверность
Использование точного потока : Да
Отключение кэша аудио : Да
Использование указателей C2 : Нет

Коррекция смещения при чтении : 103
Способность читать области Lead-in и Lead-out : Нет
Заполнение пропущенных сэмплов тишиной : Да
Удаление блоков с тишиной в начале и конце : Нет
При вычислениях CRC использовались нулевые сэмплы : Да
Интерфейс : Встроенный Win32-интерфейс для Win NT/2000

Выходной формат : Пользовательский кодировщик
Выбранный битрейт : 1024 kBit/s
Качество : Высокий
Добавление ID3-тега : Нет
Утилита сжатия : C:Program FilesExact Audio CopyMonkey's AudioMAC.exe
Дополнительные параметры : %source% %dest% -c3000 TOC извлечённого CD

Трек | Старт | Длительность | Начальный сектор | Конечный сектор
---------------------------------------------------------------------
1 | 0:00.00 | 7:57.67 | 0 | 35841
2 | 7:57.67 | 3:52.09 | 35842 | 53250
3 | 11:50.01 | 7:31.25 | 53251 | 87100
4 | 19:21.26 | 6:35.61 | 87101 | 116786
5 | 25:57.12 | 4:18.21 | 116787 | 136157
6 | 30:15.33 | 17:52.00 | 136158 | 216557
7 | 48:07.33 | 8:43.68 | 216558 | 255850 Характеристики диапазона извлечения и сообщения об ошибках

Выбранный диапазон

Имя файла F:МРJose Luis Fernandez Ledesma (2002) - Designios (2003)Ledesma, Jose Luis Fernandez - DESIGNIOS.wav

Пиковый уровень 100.0 %
Скорость извлечения 1.9 X
Качество диапазона 100.0 %
CRC теста BAEBE5A3
CRC копии BAEBE5A3
Копирование... OK

Ошибок не произошло

Конец отчёта

---- CUETools DB Plugin V2.1.3

[CTDB TOCID: 6lUm.LzF6sKDgi_QaABxP9c_Z8s-] disk not present in database, Submit result: 6lUm.LzF6sKDgi_QaABxP9c_Z8s- has been uploaded ==== Контрольная сумма отчёта DFAD0157B50FB3A4252D6D9D59617729750490102D0B771E00D84E6B1BCB79EB ====

CUETools log
[CUETools log; Date: 22.12.2014 20:13:15; Version: 2.1.4]
[CTDB TOCID: 6lUm.LzF6sKDgi_QaABxP9c_Z8s-] found.
Track | CTDB Status
1 | (1/1) Accurately ripped
2 | (1/1) Accurately ripped
3 | (1/1) Accurately ripped
4 | (1/1) Accurately ripped
5 | (1/1) Accurately ripped
6 | (1/1) Accurately ripped
7 | (1/1) Accurately ripped
[AccurateRip ID: 000dc1ac-0054960f-6b0d5307] disk not present in database.

Track Peak [ CRC32 ] [W/O NULL] [ LOG ]
-- 100,0 [BAEBE5A3] [47F0B947] CRC32
01 76,7 [4A2393DB] [D7554192]
02 96,6 [BF939A0B] [96A453FD]
03 96,6 [A43EB6CD] [34523D26]
04 100,0 [A5B9E18E] [E0B421D6]
05 98,3 [9D670607] [98B8FD6F]
06 97,0 [86611588] [EBA99740]
07 87,0 [E39C9ABA] [2A8873A9]


José Luis Fernández Ledesma - La Paciencia De Job (2006) (Repost)
EAC Rip | APE (image+.cue+log) - 334 MB | MP3 CBR 320 kbps (LAME 3.93) - 164 MB | Covers - 29 MB
Genre: Progressive Folk Rock/Avant-Prog | RAR 3% Rec. | Label: Musea

Tracklist:
01. Leyenda
02. Naufragio
03. Jardin de los Senderos
04. Palabras Como Astros
05. No te Pude Contestar
06. Los Jueces del Mundo
07. Vidas Atras / Noche
08. Donde Nadie
09. Paciencia Infinita

Total time: 01:09:35

EAC log
Exact Audio Copy V0.99 prebeta 1 from 25. May 2007

EAC extraction logfile from 15. January 2010, 21:43

Jose Luis Fernandez Ledesma / La Paciencia De Job

Used drive : HL-DT-STDVD-RAM GSA-H58N Adapter: 0 ID: 0

Read mode : Secure
Utilize accurate stream : Yes
Defeat audio cache : Yes
Make use of C2 pointers : No

Read offset correction : 102
Overread into Lead-In and Lead-Out : Yes
Fill up missing offset samples with silence : Yes
Delete leading and trailing silent blocks : No
Used interface : Native Win32 interface for Win NT & 2000

Used output format : Monkey's Audio Lossless Encoder
Selected bitrate : Extra High Lossless Compression
Quality : High
Add ID3 tag : Yes
Command line compressor : C:Arquivos de programasMonkey's AudioMAC.exe TOC of the extracted CD

Track | Start | Length | Start sector | End sector
---------------------------------------------------------
1 | 0:00.00 | 8:03.07 | 0 | 36231
2 | 8:03.07 | 8:12.01 | 36232 | 73132
3 | 16:15.08 | 8:48.12 | 73133 | 112744
4 | 25:03.20 | 7:04.00 | 112745 | 144544
5 | 32:07.20 | 3:46.63 | 144545 | 161557
6 | 35:54.08 | 11:04.40 | 161558 | 211397
7 | 46:58.48 | 11:42.65 | 211398 | 264112
8 | 58:41.38 | 1:24.70 | 264113 | 270482
9 | 60:06.33 | 9:28.30 | 270483 | 313112 Range status and errors

Selected range

Filename C: musicatorrent.ru upLa Paciencia De Job.wav

Peak level 97.7 %
Range quality 99.9 %
Copy CRC 1652B59C
Copy OK

No errors occurred

End of status report

------------------------------------------------------------

Exact Audio Copy V0.99 prebeta 1 from 25. May 2007

EAC extraction logfile from 15. January 2010, 21:44

Jose Luis Fernandez Ledesma / La Paciencia De Job

Used drive : HL-DT-STDVD-RAM GSA-H58N Adapter: 0 ID: 0

Read mode : Secure
Utilize accurate stream : Yes
Defeat audio cache : Yes
Make use of C2 pointers : No

Read offset correction : 102
Overread into Lead-In and Lead-Out : Yes
Fill up missing offset samples with silence : Yes
Delete leading and trailing silent blocks : No
Used interface : Native Win32 interface for Win NT & 2000

Used output format : Monkey's Audio Lossless Encoder
Selected bitrate : Extra High Lossless Compression
Quality : High
Add ID3 tag : Yes
Command line compressor : C:Arquivos de programasMonkey's AudioMAC.exe TOC of the extracted CD

Track | Start | Length | Start sector | End sector
---------------------------------------------------------
1 | 0:00.00 | 8:03.07 | 0 | 36231
2 | 8:03.07 | 8:12.01 | 36232 | 73132
3 | 16:15.08 | 8:48.12 | 73133 | 112744
4 | 25:03.20 | 7:04.00 | 112745 | 144544
5 | 32:07.20 | 3:46.63 | 144545 | 161557
6 | 35:54.08 | 11:04.40 | 161558 | 211397
7 | 46:58.48 | 11:42.65 | 211398 | 264112
8 | 58:41.38 | 1:24.70 | 264113 | 270482
9 | 60:06.33 | 9:28.30 | 270483 | 313112 Range status and errors

Selected range

Filename C: musicatorrent.ru upLa Paciencia De Job.wav

Peak level 97.7 %
Range quality 99.9 %
Copy CRC 1652B59C
Copy OK

No errors occurred

End of status report

CUETools log
[CUETools log; Date: 22.12.2014 20:15:39; Version: 2.1.4]
[CTDB TOCID: pMfwfBtS9HolbwdOBIIiRhKIKyk-] disk not present in database.
[AccurateRip ID: 00183878-00b0e57c-82104e09] disk not present in database.

Track Peak [ CRC32 ] [W/O NULL] [ LOG ]
-- 97,7 [1652B59C] [6A3D1086]
01 96,6 [8CC7C78B] [5EFFEA2F] [1652B59C]
02 97,7 [3D3552E1] [3E4F8226] [1652B59C]
03 97,7 [F357D5AE] [7674B1FA]
04 97,7 [C002DDF4] [A31255DD]
05 96,6 [6582973B] [B11FD08B]
06 96,6 [1E04196B] [786789F5]
07 97,7 [74BBEA27] [3B200B8F]
08 96,1 [EAB35CB9] [20FD2E5C]
09 97,7 [18EDFB1D] [792784D6]


José Luis Fernández Ledesma - Hibridos (2007)
EAC Rip | APE (image+.cue+log) - 353 MB | MP3 CBR 320 kbps (LAME 3.93) - 146 MB | Covers - 19 MB
Genre: Progressive Folk Rock/Avant-Prog | RAR 3% Rec. | Label: Luna Negra/Musea (CDLN-36, FGBG 4738.AR)

Tracklist:
01. Santo y Sena
02. Tricky Trip
03. Cita en Ziggurat
04. Road Movie
05. Bolero
06. La Piedra que Cayo del Cielo
07. A Bao a Qu
08. ParaRap
09. Ca(s)za de Chaneques
10. Oigo Voces
11. Muda de Piel
12. Road Movie II

Total time: 01:02:18

EAC log
Exact Audio Copy V1.0 beta 3 from 29. August 2011

Отчёт EAC об извлечении, выполненном 29. апреля 2013, 6:23

Jose Luis Fernandez Ledesma / Hibridos

Дисковод: ASUS SDRW-08D1S-U Adapter: 1 ID: 0

Режим чтения : Достоверность
Использование точного потока : Да
Отключение кэша аудио : Да
Использование указателей C2 : Нет

Коррекция смещения при чтении : 103
Способность читать области Lead-in и Lead-out : Нет
Заполнение пропущенных сэмплов тишиной : Да
Удаление блоков с тишиной в начале и конце : Нет
При вычислениях CRC использовались нулевые сэмплы : Да
Интерфейс : Встроенный Win32-интерфейс для Win NT/2000

Выходной формат : Пользовательский кодировщик
Выбранный битрейт : 1024 kBit/s
Качество : Высокий
Добавление ID3-тега : Нет
Утилита сжатия : C:Program FilesExact Audio CopyMonkey's AudioMAC.exe
Дополнительные параметры : %source% %dest% -c3000 TOC извлечённого CD

Трек | Старт | Длительность | Начальный сектор | Конечный сектор
---------------------------------------------------------------------
1 | 0:00.00 | 5:35.71 | 0 | 25195
2 | 5:35.71 | 1:03.04 | 25196 | 29924
3 | 6:39.00 | 2:08.16 | 29925 | 39540
4 | 8:47.16 | 6:39.11 | 39541 | 69476
5 | 15:26.27 | 9:20.66 | 69477 | 111542
6 | 24:47.18 | 8:04.74 | 111543 | 147916
7 | 32:52.17 | 4:41.52 | 147917 | 169043
8 | 37:33.69 | 4:00.13 | 169044 | 187056
9 | 41:34.07 | 3:02.03 | 187057 | 200709
10 | 44:36.10 | 3:36.00 | 200710 | 216909
11 | 48:12.10 | 11:37.57 | 216910 | 269241
12 | 59:49.67 | 2:28.02 | 269242 | 280343 Характеристики диапазона извлечения и сообщения об ошибках

Выбранный диапазон

Имя файла F:МРJose Luis Fernandez Ledesma (2007) - HibridosJose Luis Fernandez Ledesma - Hibridos.wav

Пиковый уровень 100.0 %
Скорость извлечения 2.0 X
Качество диапазона 100.0 %
CRC теста 7034D523
CRC копии 7034D523
Копирование... OK

Ошибок не произошло

Конец отчёта

---- CUETools DB Plugin V2.1.3

[CTDB TOCID: yTDGlHEZukgc782TsqO_b942pzg-] database access error: Невозможно разрешить удаленное имя: 'db.cuetools.net' ==== Контрольная сумма отчёта A67C34AE022386DB054B2570848DE5E71AD893FFA73BE7F945E7AE4E2EFAFB4D ====

CUETools log
[CUETools log; Date: 22.12.2014 20:17:24; Version: 2.1.4]
[CTDB TOCID: yTDGlHEZukgc782TsqO_b942pzg-] found.
Track | CTDB Status
1 | (1/1) Accurately ripped
2 | (1/1) Accurately ripped
3 | (1/1) Accurately ripped
4 | (1/1) Accurately ripped
5 | (1/1) Accurately ripped
6 | (1/1) Accurately ripped
7 | (1/1) Accurately ripped
8 | (1/1) Accurately ripped
9 | (1/1) Accurately ripped
10 | (1/1) Accurately ripped
11 | (1/1) Accurately ripped
12 | (1/1) Accurately ripped
[AccurateRip ID: 001aa7da-00fe2199-c50e990c] found.
Track [ CRC | V2 ] Status
01 [df953d29|5d2cbf03] (1+0/1) Accurately ripped
02 [53bb4bde|d5def8c8] (1+0/1) Accurately ripped
03 [fb0667f6|4fc707e6] (1+0/1) Accurately ripped
04 [ba611ee1|7d61a2c1] (1+0/1) Accurately ripped
05 [f6c81d44|f1701a34] (1+0/1) Accurately ripped
06 [d39b13bc|2a3a05b9] (1+0/1) Accurately ripped
07 [3119bc24|d9381f4c] (1+0/1) Accurately ripped
08 [3b9b98c7|2d3f3821] (1+0/1) Accurately ripped
09 [d543f5cc|41f0b32d] (1+0/1) Accurately ripped
10 [57598d27|e9da29dc] (1+0/1) Accurately ripped
11 [690b6bd8|a7f1926b] (1+0/1) Accurately ripped
12 [294657c3|63c67ada] (1+0/1) Accurately ripped

Track Peak [ CRC32 ] [W/O NULL] [ LOG ]
-- 100,0 [7034D523] [513A59D1] CRC32
01 96,6 [4D6CA3DB] [FC4DF3D3]
02 96,6 [DAB82243] [DD9045B4]
03 96,6 [1BCCD6EA] [36DE47C9]
04 96,6 [779BFF0C] [6AEB2E94]
05 100,0 [F93603DD] [CD6A0303]
06 96,6 [BB5DEBF2] [266B5E58]
07 96,6 [2D623305] [9EF7D731]
08 96,6 [BD25CB57] [A6B92DAB]
09 96,6 [A8DB059B] [95DCFD71]
10 100,0 [41237547] [EDC3A224]
11 96,6 [2E836045] [48210876]
12 96,6 [0807CFF4] [A6F0B011]

Thanks to johnik, hamatai, Pasheka-Pacheka

See also:

Nitroflare.com

José Luis Fernández Ledesma Q - Motivos Para Perderse (1996)

LOSSLESS:
Nitroflare.com
_______________

MP3 320 kbps:
Nitroflare.com
_______________

Covers:
Nitroflare.com
______________________________________

José Luis Fernández Ledesma - Extractos (1997)

LOSSLESS:
Nitroflare.com
_______________

MP3 320 kbps:
Nitroflare.com
_______________

Covers:
Nitroflare.com
______________________________________

José Luis Fernández Ledesma - Al Filo (2002)

LOSSLESS:
Nitroflare.com
_______________

MP3 320 kbps:
Nitroflare.com
_______________

Covers:
Nitroflare.com
______________________________________

José Luis Fernández Ledesma - Designios (2003)

LOSSLESS:
Nitroflare.com
_______________

MP3 320 kbps:
Nitroflare.com
_______________

Covers:
Nitroflare.com
______________________________________

José Luis Fernández Ledesma - La Paciencia De Job (2006)

LOSSLESS:
Nitroflare.com
_______________

MP3 320 kbps:
Nitroflare.com
_______________

Covers:
Nitroflare.com
______________________________________

José Luis Fernández Ledesma - Hibridos (2007)

LOSSLESS:
Nitroflare.com
_______________

MP3 320 kbps:
Nitroflare.com
_______________

Covers:
Nitroflare.com

Depositfiles.com

José Luis Fernández Ledesma Q - Motivos Para Perderse (1996)

LOSSLESS:
Depositfiles.com
_______________

MP3 320 kbps:
Depositfiles.com
_______________

Covers:
Depositfiles.com
______________________________________

José Luis Fernández Ledesma - Extractos (1997)

LOSSLESS:
Depositfiles.com
_______________

MP3 320 kbps:
Depositfiles.com
_______________

Covers:
Depositfiles.com
______________________________________

José Luis Fernández Ledesma - Al Filo (2002)

LOSSLESS:
Depositfiles.com
_______________

MP3 320 kbps:
Depositfiles.com
_______________

Covers:
Depositfiles.com
______________________________________

José Luis Fernández Ledesma - Designios (2003)

LOSSLESS:
Depositfiles.com
_______________

MP3 320 kbps:
Depositfiles.com
_______________

Covers:
Depositfiles.com
______________________________________

José Luis Fernández Ledesma - La Paciencia De Job (2006)

LOSSLESS:
Depositfiles.com
_______________

MP3 320 kbps:
Depositfiles.com
_______________

Covers:
Depositfiles.com
______________________________________

José Luis Fernández Ledesma - Hibridos (2007)

LOSSLESS:
Depositfiles.com
_______________

MP3 320 kbps:
Depositfiles.com
_______________

Covers:
Depositfiles.com


Free Full Download José Luis Fernández Ledesma - 6 Studio Albums (1996-2007) form MediaFire.com link RapidShare, ifile.it, Uploaded.to, Zippyshare, FileSonic, turbobit.net, ul.to, ORON, DepositFiles, hotfile.com, rapidgator.net, letitbit.net, extabit.com, filefactory.com. José Luis Fernández Ledesma - 6 Studio Albums (1996-2007) Torrent Download with keygen, crack, serial, dvdrip, hdrip, HD, 720p, 2014, 2015
Albums Luis Enrique | Luis Mig L Discografia Completa Albums | Tributo A Jose Jose Latin Grammy Completo | Cerrone Discography Studio Albums | S De Studio Albums Deluxe Editions Cd Dvd | Lindisfarne Alan Hull Studio Albums | Susanna Hoffs Studio Albums Collection | Massive Attack Studio Albums Collection | Santana Discography Studio Albums Artwork List | Qen Anniversary Studio Albums With Bonus Cd Japan Shm Cd Remaster

Please login or register

Dear visitor, you are browsing our website as Guest. We strongly recommend you to register and login to view hidden contents.

Comments (0)