Torrent Downloads - TorrentHuge



Do not remember me!

 
» » » Sally Oldfield - Water Bearer (1978) 2007 Universal Music POCE 1117

Sally Oldfield - Water Bearer (1978) 2007 Universal Music POCE 1117

Sally Oldfield - Water Bearer (1978) front

Sally Oldfield - Water Bearer (1978)
EAC | Flac(Image) + Cue + Log & iPod M4A(Tracks) & MP3 CBR 320Kbps
2007 | Universal Music, POCE 1117 | ~ 260 or 260 or 108 Mb | Scans(png, 600dpi) -> 206 Mb
Folk / Rock / Pop Rock / Singer/Songwriter

The sister of the TUBULAR BELLS composer Mike Oldfield, Sally Oldfield had contributed to many of her brother's recordings before releasing this solo debut in 1978. With her mellifluous vocals and a similar multi-instrumental ability to her brother, Oldfield spins a series of Tolkien-esque tales that set her firmly in the vanguard of 1970s prog rock.

by Rovi


Sally Oldfield had already had years of experience singing, adding numerous backing vocals to brother Mike Oldfield's works such as Hergest Ridge, Ommadawn and Tubular Bells. She had also done a one album wonder with her brother Mike, the SallyAngie folk duo. Her voice is befitting to progressive music, ethereal, folky and popular, take your pick. Waterbearer is her first solo release and is also an excellent debut too. There is something quite madrigal to her, she reminds me of the chraracter, The river maiden out of The Old Forest from Tolkien's world, Ethereal, almost elvish. It is no surprise then that the Waterbearer continues with Tolkienesque themes with the wonderfully progressive " Songs of The Quendi" The song having four parts providing rich tapestry of sounds. The title song is equally beautiful. " Mirrors" although now sounding a bit dated still evokes that madrigal touch and perhaps her most commercially succesful song ever released.

The album generally holds up well, ironically to this reviewer the highlight to the album is " Night Of The Hunter's Moon", which was the flip side to the single Mirrors. Great keyboards, shifting time signatures and booming vocals from Sally. " Child Of Allah" is also great laying the prescedent that SO is universally spiritual and respective of all religions. An excellent album and a perfect starting point ( debuts normally are ) for anyone wanting to invest in her discography. Four stars.

by Chris S , progarchives

Sally Oldfield - Water Bearer (1978):

Sally Oldfield - Water Bearer (1978) cd

Tracklist:

01. Water Bearer
02. Songs of the Quendi
03. Mirrors
04. Weaver
05. Night of the Hunter's Moon
06. Child of Allah
07. Song of the Bow
08. Fire And Honey
09. Song of the Healer

Musicians:

- Sally Oldfield / multi Instruments and vocals
- Brian Burrows / tenor sax
- Herbie Flowers / double bass
- Dave Lawson / synthesisers
- Mike Oldfield / mandolin
- Jean Price / harp
- Frank Ricotti / percussion
- Tim Wheaton / percussion & cymbals
- Trevor Spence / drums & percussion

EAC Log
Exact Audio Copy V1.0 beta 3 from 29. August 2011

EAC extraction logfile from 7. May 2013, 17:13

Sally Oldfield / Water Bearer

Used drive : PLEXTOR DVDR PX-891SA Adapter: 0 ID: 2

Read mode : Secure
Utilize accurate stream : Yes
Defeat audio cache : Yes
Make use of C2 pointers : No

Read offset correction : 6
Overread into Lead-In and Lead-Out : No
Fill up missing offset samples with silence : Yes
Delete leading and trailing silent blocks : No
Null samples used in CRC calculations : Yes
Used interface : Installed external ASPI interface

Used output format : User Defined Encoder
Selected bitrate : 320 kBit/s
Quality : High
Add ID3 tag : No
Command line compressor : C:Program FilesExact Audio Copy 1.0Flacflac.exe
Additional command line options : -V -8 -T "Genre=%genre%" -T "Artist=%artist%" -T "Title=%title%" -T "Album=%albumtitle%" -T "Date=%year%" -T "Tracknumber=%tracknr%" -T "Comment=%comment%" %source% TOC of the extracted CD

Track | Start | Length | Start sector | End sector
---------------------------------------------------------
1 | 0:00.00 | 6:26.44 | 0 | 28993
2 | 6:26.44 | 12:50.15 | 28994 | 86758
3 | 19:16.59 | 3:37.50 | 86759 | 103083
4 | 22:54.34 | 3:26.50 | 103084 | 118583
5 | 26:21.09 | 3:18.38 | 118584 | 133471
6 | 29:39.47 | 3:38.20 | 133472 | 149841
7 | 33:17.67 | 2:34.64 | 149842 | 161455
8 | 35:52.56 | 3:20.71 | 161456 | 176526
9 | 39:13.52 | 3:36.70 | 176527 | 192796 Range status and errors

Selected range

Filename K:Lossless TempSally OldfieldSally Oldfield - Water Bearer - 1978 (2007 Universal Music, POCE 1117, Japan)Sally Oldfield - Water Bearer.wav

Peak level 96.6 %
Extraction speed 1.3 X
Range quality 100.0 %
Test CRC C2AF77BE
Copy CRC C2AF77BE
Copy OK

No errors occurred


AccurateRip summary

Track 1 accurately ripped (confidence 1) [4934E6DC] (AR v1)
Track 2 accurately ripped (confidence 1) [F2382513] (AR v1)
Track 3 accurately ripped (confidence 1) [376E5C30] (AR v1)
Track 4 accurately ripped (confidence 1) [D76D042E] (AR v1)
Track 5 accurately ripped (confidence 1) [F72A7822] (AR v1)
Track 6 accurately ripped (confidence 1) [4D4EDC67] (AR v1)
Track 7 accurately ripped (confidence 1) [EDE754A5] (AR v1)
Track 8 accurately ripped (confidence 1) [E385BF99] (AR v1)
Track 9 accurately ripped (confidence 1) [D4E955FD] (AR v1)

All tracks accurately ripped

End of status report

DR Log
foobar2000 1.2.4 / Dynamic Range Meter 1.1.1
log date: 2013-05-16 11:37:33

--------------------------------------------------------------------------------
Analyzed: Sally Oldfield / Water Bearer
--------------------------------------------------------------------------------

DR Peak RMS Duration Track
--------------------------------------------------------------------------------
DR10 -0.32 dB -13.26 dB 6:27 01-Water Bearer
DR12 -0.30 dB -13.40 dB 12:50 02-b) Ring Theme / c) Wampum Song / d) Ring Chorus / e) Nenya / f) Path Of The A...
DR10 -1.18 dB -13.02 dB 3:38 03-Weaver
DR12 -0.34 dB -14.18 dB 3:27 04-Night Of The Hunter's Moon
DR10 -0.30 dB -13.62 dB 3:19 05-Child Of Allah
DR11 -0.34 dB -12.55 dB 3:38 06-Song Of The Bow
DR9 -1.63 dB -12.50 dB 2:35 07-Fire And Honey
DR10 -1.74 dB -13.16 dB 3:21 08-Song Of The Healer
DR11 -0.66 dB -14.49 dB 3:37 09-Mirrors
--------------------------------------------------------------------------------

Number of tracks: 9
Official DR value: DR11

Samplerate: 44100 Hz
Channels: 2
Bits per sample: 16
Bitrate: 779 kbps
Codec: FLAC

Sally Oldfield - Water Bearer (1978) back

All thanks go to Swamp Fox

Download Sally Oldfield - Water Bearer (1978):



Free Full Download Sally Oldfield - Water Bearer (1978) 2007 Universal Music POCE 1117 form MediaFire.com link RapidShare, ifile.it, Uploaded.to, Zippyshare, FileSonic, turbobit.net, ul.to, ORON, DepositFiles, hotfile.com, rapidgator.net, letitbit.net, extabit.com, filefactory.com. Sally Oldfield - Water Bearer (1978) 2007 Universal Music POCE 1117 Torrent Download with keygen, crack, serial, dvdrip, hdrip, HD, 720p, 2014, 2015
Sally Oldfield Cantadora | Universal Soldiers 2007 | 2007 Mtv Video Music Awards | 2007 Video Music Awards | Vector Bearer | Download Free Universal Boot Disk Universal Diagnostic And Repair Kit U | La Petite Fille En Velours Bleu 1978 | Hababam Sinifi Dokuz Do Uruyor 1978 | Mike Oldfield | La Petite Fille En Velours Bleu 1978 Full Movie

Please login or register

Dear visitor, you are browsing our website as Guest. We strongly recommend you to register and login to view hidden contents.

Comments (0)