Torrent Downloads - TorrentHuge



Do not remember me!

 
» » » Mike Oldfield - Two Sides: The Very Best Of Mike Oldfield (2CD 2012) RE-UP

Mike Oldfield - Two Sides: The Very Best Of Mike Oldfield (2CD 2012) RE-UP


Mike Oldfield - Two Sides: The Very Best Of Mike Oldfield (2CD, 2012)
EAC-FLAC Images with CUEs & LOGs - 936 MB | Full Scans | MP3 CBR 320 Kbps - 360 MB
Progressive Rock / Pop Rock / New Age | TT - 157:20 mins | Label: Mercury Records / Cat. # 533918-2

Two Sides: The Very Best of Mike Oldfield is a compilation album by British multi-instrumentalist Mike Oldfield that was released on 30 July 2012. The content of the album was compiled by Oldfield himself. The album charted at 6 in the UK Albums Chart on 5 August 2012.

allmisic.com says: Mike Oldfield, the self-taught guitarist, multi-instrumentalist, composer, arranger, and producer, is chiefly remembered for his album-length "Tubular Bells" composition, an eerie, fascinating, and conceptual piece that did so much to set the tone for the movie The Exorcist. Oldfield played most of the instruments himself on "Tubular Bells" and it remains, and undoubtedly always will remain, his signature piece, but he's done a lot more than that, exploring styles and musical forms from progressive rock and folk to jazz, ambient, world, pop, and even disco and beyond throughout his maverick recording career. This two-disc set, selected and sequenced by Oldfield himself, provides a nice survey of his shifts and turns, and illustrates the restless and often brilliant way he produces a sound and style that manages to be expansive and insular, popular and eccentric, and sometimes all of these at once. Excerpts from "Tubular Bells" are here, naturally, along with the African section of "Amarok," "Ommadawn," and shorter pieces like "Ascension," "Supernova," and "The Tempest," and there's even a message in Morse code for Richard Branson woven in here. Now 60, and making his home in the Bahamas, Oldfield continues to do his own thing, combining the avant-garde with classical composition techniques, prog rock dynamics, and his own restless sense of pop music. This self-chosen set makes a great introduction to his life's work, although ardent fans will no doubt have everything here in their longer forms.


Tracks:

CD1:
01. Tubular Bells (Part One) (Two Sides Excerpt)
02. Ommadawn (Part One) (Two Sides Excerpt)
03. Crises (Two Sides Excerpt)
04. The Lake (Two Sides Excerpt)
05. Amarok (Part One) (Two Sides Excerpt)
06. Amarok (Part Two) (Two Sides Excerpt)
07. Sentinel
08. Supernova
09. Ascension
10. The Tempest

CD2:
01. Guilty
02. Family Man
03. Five Miles Out
04. Moonlight Shadow
05. Shadow On The Wall
06. To France
07. Etude
08. Magic Touch
09. Islands
10. Heaven's Open
11. Tattoo
12. The Song Of The Sun
13. Summit Day
14. Lake Constance
15. Broad Sunlit Uplands
16. The Doge's Palace
17. Amber Light
18. Angelique
19. On My Heart

EAC-LOGs
Exact Audio Copy V1.0 beta 3 from 29. August 2011

EAC extraction logfile from 2. August 2012, 10:09

Mike Oldfoeld / Two Sides The Very Best Of Mike Oldfield (CD 1)

Used drive : Optiarc DVD RW AD-5280S Adapter: 1 ID: 0

Read mode : Secure
Utilize accurate stream : Yes
Defeat audio cache : Yes
Make use of C2 pointers : No

Read offset correction : 48
Overread into Lead-In and Lead-Out : No
Fill up missing offset samples with silence : Yes
Delete leading and trailing silent blocks : No
Null samples used in CRC calculations : Yes
Used interface : Native Win32 interface for Win NT & 2000

Used output format : Monkey's Audio Lossless Encoder
Selected bitrate : High Lossless Compression
Quality : High
Add ID3 tag : No
Command line compressor : C:Program FilesMonkey's AudioMAC.exe
Additional command line options : -v TOC of the extracted CD

Track | Start | Length | Start sector | End sector
---------------------------------------------------------
1 | 0:00.00 | 13:30.04 | 0 | 60753
2 | 13:30.04 | 6:48.34 | 60754 | 91387
3 | 20:18.38 | 10:30.55 | 91388 | 138692
4 | 30:49.18 | 5:30.58 | 138693 | 163500
5 | 36:20.01 | 5:05.73 | 163501 | 186448
6 | 41:25.74 | 15:17.16 | 186449 | 255239
7 | 56:43.15 | 8:09.43 | 255240 | 291957
8 | 64:52.58 | 3:24.61 | 291958 | 307318
9 | 68:17.44 | 5:51.51 | 307319 | 333694
10 | 74:09.20 | 5:48.14 | 333695 | 359808 Range status and errors

Selected range

Filename G:Mike Oldfoeld - Two Sides The Very Best Of Mike Oldfield (CD 1).wav

Peak level 98.8 %
Extraction speed 2.4 X
Range quality 100.0 %
Test CRC AB40ACA0
Copy CRC AB40ACA0
Copy OK

No errors occurred


AccurateRip summary

Track 1 not present in database
Track 2 not present in database
Track 3 not present in database
Track 4 not present in database
Track 5 not present in database
Track 6 not present in database
Track 7 not present in database
Track 8 not present in database
Track 9 not present in database
Track 10 not present in database

None of the tracks are present in the AccurateRip database

End of status report

==== Log checksum 68BF476775381F9366E610EF2959701B72029DA6D867CCF61DE38542A1750E62 ====

++++++++++++++++++++++++++++++++

Exact Audio Copy V1.0 beta 3 from 29. August 2011

EAC extraction logfile from 2. August 2012, 11:29

Mike Oldfield / Two Sides The Very Best Of Mike Oldfield (CD 2)

Used drive : Optiarc DVD RW AD-5280S Adapter: 1 ID: 0

Read mode : Secure
Utilize accurate stream : Yes
Defeat audio cache : Yes
Make use of C2 pointers : No

Read offset correction : 48
Overread into Lead-In and Lead-Out : No
Fill up missing offset samples with silence : Yes
Delete leading and trailing silent blocks : No
Null samples used in CRC calculations : Yes
Used interface : Native Win32 interface for Win NT & 2000

Used output format : Monkey's Audio Lossless Encoder
Selected bitrate : High Lossless Compression
Quality : High
Add ID3 tag : No
Command line compressor : C:Program FilesMonkey's AudioMAC.exe
Additional command line options : -v TOC of the extracted CD

Track | Start | Length | Start sector | End sector
---------------------------------------------------------
1 | 0:00.00 | 4:15.55 | 0 | 19179
2 | 4:15.55 | 3:47.74 | 19180 | 36278
3 | 8:03.54 | 4:19.23 | 36279 | 55726
4 | 12:23.02 | 3:39.66 | 55727 | 72217
5 | 16:02.68 | 3:10.27 | 72218 | 86494
6 | 19:13.20 | 4:41.21 | 86495 | 107590
7 | 23:54.41 | 4:39.35 | 107591 | 128550
8 | 28:34.01 | 4:17.06 | 128551 | 147831
9 | 32:51.07 | 4:20.40 | 147832 | 167371
10 | 37:11.47 | 4:31.25 | 167372 | 187721
11 | 41:42.72 | 3:47.01 | 187722 | 204747
12 | 45:29.73 | 4:34.61 | 204748 | 225358
13 | 50:04.59 | 3:47.35 | 225359 | 242418
14 | 53:52.19 | 5:18.57 | 242419 | 266325
15 | 59:11.01 | 4:05.23 | 266326 | 284723
16 | 63:16.24 | 3:08.28 | 284724 | 298851
17 | 66:24.52 | 3:47.09 | 298852 | 315885
18 | 70:11.61 | 4:41.62 | 315886 | 337022
19 | 74:53.48 | 2:28.45 | 337023 | 348167 Range status and errors

Selected range

Filename G:Mike Oldfield - Two Sides The Very Best Of Mike Oldfield (CD 2).wav

Peak level 98.8 %
Extraction speed 2.4 X
Range quality 100.0 %
Test CRC 49608B10
Copy CRC 49608B10
Copy OK

No errors occurred


AccurateRip summary

Track 1 not present in database
Track 2 not present in database
Track 3 not present in database
Track 4 not present in database
Track 5 not present in database
Track 6 not present in database
Track 7 not present in database
Track 8 not present in database
Track 9 not present in database
Track 10 not present in database
Track 11 not present in database
Track 12 not present in database
Track 13 not present in database
Track 14 not present in database
Track 15 not present in database
Track 16 not present in database
Track 17 not present in database
Track 18 not present in database
Track 19 not present in database

None of the tracks are present in the AccurateRip database

End of status report

==== Log checksum 396E7A1755D1E23958CD73C71188733D37DB9AC77F8C3FD4F78E706211179231 ====


Thanks to London!



Free Full Download Mike Oldfield - Two Sides: The Very Best Of Mike Oldfield (2CD 2012) RE-UP form MediaFire.com link RapidShare, ifile.it, Uploaded.to, Zippyshare, FileSonic, turbobit.net, ul.to, ORON, DepositFiles, hotfile.com, rapidgator.net, letitbit.net, extabit.com, filefactory.com. Mike Oldfield - Two Sides: The Very Best Of Mike Oldfield (2CD 2012) RE-UP Torrent Download with keygen, crack, serial, dvdrip, hdrip, HD, 720p, 2014, 2015
Mike Oldfield Two Sides M A | Mike Oldfield | Mike Oldfield Incantations | Mike Oldfield Qe Cd Deluxe Edition Mp Flac | Sally Oldfield Cantadora | Torrent Terry Oldfield Journey Into Space | Terry Oldfield Journey Into Space Download | Mike Zero | Mike | Dhi Mike

Please login or register

Dear visitor, you are browsing our website as Guest. We strongly recommend you to register and login to view hidden contents.

Comments (0)