Torrent Downloads - TorrentHuge



Do not remember me!

 
» » » Mike Oldfield - Tr3s Lunas (2002)

Mike Oldfield - Tr3s Lunas (2002)

Mike Oldfield - Tr3s Lunas (2002) front

Mike Oldfield - Tr3s Lunas (2002)
EAC | Flac(Image) + Cue + Log & M4A(Tracks)
2014 | Oldfield Music Limited, 825646233298/7 | ~ 340 or 342 Mb | Scans Included
Ambient / New Age / Prog Rock

Released in 2002 after a series of high-toned concept recordings, Tres Lunas is a bit of a return to straight-up, new age mood music for Mike Oldfield. The musician/composer once again spins carefully layered guitar and keyboard performances into a seemingly endless stream of space-age lullabies supported by the faintest of beats -- most of which rarely exceed the intensity of a weak pulse. "No Man's Land" and "Turtle Island" have the most character in this set, but a record like this should be taken in as a whole. A nifty "Music VR" video game is included that allows fans to explore 3D landscapes on their computer while listening to the disc. Of course, to "unlock" the software, users have to pay a little extra cash. The music of Tres Lunas is the soundtrack for the game, which is the actual focus of this project. This premise doesn't set-up well for standard tension-and-release song elements; however, Oldfield fans shouldn't expect traditional compositions from the man anyway. Since most of the conceptual tinkering that went into Tres Lunas was focused on the computer game, not the music, Oldfield doesn't overwork his arrangements, which leaves them fresh and leaner than many of his late-'90s offerings.

by Jason Anderson, AMG

Mike Oldfield - Tr3s Lunas (2002):

Mike Oldfield - Tr3s Lunas (2002) cd

Tracklist:

01. Misty (00:03:59)
02. NoMansLand (00:06:08)
03. ReturnToTheOrigin (00:04:39)
04. Landfall (00:02:19)
05. Viper (00:04:32)
06. TurtleIsland (00:03:41)
07. ToBeFree (00:04:22)
08. FireFly (00:03:46)
09. Tr3sLunas (00:04:35)
10. Daydream (00:02:15)
11. ThouArtIn Heaven (00:05:23)
12. Sirius (00:05:47)
13. NoMansLand (Reprise) (00:02:54)

EAC Log
Exact Audio Copy V1.0 beta 3 from 29. August 2011

EAC extraction logfile from 25. October 2014, 22:43

Mike Oldfield / Tr3s Lunas

Used drive : PLEXTOR DVDR PX-891SA Adapter: 1 ID: 0

Read mode : Secure
Utilize accurate stream : Yes
Defeat audio cache : Yes
Make use of C2 pointers : No

Read offset correction : 6
Overread into Lead-In and Lead-Out : No
Fill up missing offset samples with silence : Yes
Delete leading and trailing silent blocks : No
Null samples used in CRC calculations : Yes
Used interface : Native Win32 interface for Win NT & 2000
Gap handling : Appended to previous track

Used output format : User Defined Encoder
Selected bitrate : 1024 kBit/s
Quality : High
Add ID3 tag : No
Command line compressor : C:Program Files (x86)Exact Audio CopyFLACFLAC.EXE
Additional command line options : -0 -V -T "ARTIST=%artist%" -T "TITLE=%title%" -T "ALBUM=%albumtitle%" -T "DATE=%year%" -T "TRACKNUMBER=%tracknr%" -T "TOTALTRACKS=%numtracks%" -T "GENRE=%genre%" -T "COMMENT=Naftamusic Release!" %source% TOC of the extracted CD

Track | Start | Length | Start sector | End sector
---------------------------------------------------------
1 | 0:00.00 | 3:59.03 | 0 | 17927
2 | 3:59.03 | 6:08.07 | 17928 | 45534
3 | 10:07.10 | 4:38.70 | 45535 | 66454
4 | 14:46.05 | 2:19.03 | 66455 | 76882
5 | 17:05.08 | 4:32.15 | 76883 | 97297
6 | 21:37.23 | 3:40.67 | 97298 | 113864
7 | 25:18.15 | 4:21.47 | 113865 | 133486
8 | 29:39.62 | 3:46.21 | 133487 | 150457
9 | 33:26.08 | 4:35.08 | 150458 | 171090
10 | 38:01.16 | 2:15.11 | 171091 | 181226
11 | 40:16.27 | 5:22.39 | 181227 | 205415
12 | 45:38.66 | 5:46.40 | 205416 | 231405
13 | 51:25.31 | 2:54.13 | 231406 | 244468 Track 1

Filename E:Mike Oldfield ‎– The Studio Albums 1992-2003 (8 CD Box Set 2014)[FLAC] - Naftamusic7. Tr3s Lunas (2002-2014)1 - Misty.wav

Pre-gap length 0:00:02.00

Peak level 98.8 %
Extraction speed 1.4 X
Track quality 99.9 %
Test CRC F2668201
Copy CRC F2668201
Track not present in AccurateRip database
Copy OK

Track 2

Filename E:Mike Oldfield ‎– The Studio Albums 1992-2003 (8 CD Box Set 2014)[FLAC] - Naftamusic7. Tr3s Lunas (2002-2014)2 - NoMansLand.wav

Pre-gap length 0:00:00.72

Peak level 98.8 %
Extraction speed 2.2 X
Track quality 100.0 %
Test CRC A380A4B5
Copy CRC A380A4B5
Track not present in AccurateRip database
Copy OK

Track 3

Filename E:Mike Oldfield ‎– The Studio Albums 1992-2003 (8 CD Box Set 2014)[FLAC] - Naftamusic7. Tr3s Lunas (2002-2014)3 - ReturnToTheOrigin.wav

Pre-gap length 0:00:01.31

Peak level 98.8 %
Extraction speed 2.4 X
Track quality 100.0 %
Test CRC 751CEBA7
Copy CRC 751CEBA7
Track not present in AccurateRip database
Copy OK

Track 4

Filename E:Mike Oldfield ‎– The Studio Albums 1992-2003 (8 CD Box Set 2014)[FLAC] - Naftamusic7. Tr3s Lunas (2002-2014)4 - Landfall.wav

Peak level 79.2 %
Extraction speed 2.3 X
Track quality 100.0 %
Test CRC 3EFDCB79
Copy CRC 3EFDCB79
Track not present in AccurateRip database
Copy OK

Track 5

Filename E:Mike Oldfield ‎– The Studio Albums 1992-2003 (8 CD Box Set 2014)[FLAC] - Naftamusic7. Tr3s Lunas (2002-2014)5 - Viper.wav

Pre-gap length 0:00:02.18

Peak level 98.2 %
Extraction speed 2.7 X
Track quality 100.0 %
Test CRC 9B5C42D4
Copy CRC 9B5C42D4
Track not present in AccurateRip database
Copy OK

Track 6

Filename E:Mike Oldfield ‎– The Studio Albums 1992-2003 (8 CD Box Set 2014)[FLAC] - Naftamusic7. Tr3s Lunas (2002-2014)6 - TurtleIsland.wav

Peak level 98.8 %
Extraction speed 2.7 X
Track quality 100.0 %
Test CRC 9523A62B
Copy CRC 9523A62B
Track not present in AccurateRip database
Copy OK

Track 7

Filename E:Mike Oldfield ‎– The Studio Albums 1992-2003 (8 CD Box Set 2014)[FLAC] - Naftamusic7. Tr3s Lunas (2002-2014)7 - ToBeFree.wav

Peak level 98.8 %
Extraction speed 2.2 X
Track quality 99.9 %
Test CRC A191F187
Copy CRC A191F187
Track not present in AccurateRip database
Copy OK

Track 8

Filename E:Mike Oldfield ‎– The Studio Albums 1992-2003 (8 CD Box Set 2014)[FLAC] - Naftamusic7. Tr3s Lunas (2002-2014)8 - FireFly.wav

Peak level 93.6 %
Extraction speed 3.0 X
Track quality 100.0 %
Test CRC F2653F34
Copy CRC F2653F34
Track not present in AccurateRip database
Copy OK

Track 9

Filename E:Mike Oldfield ‎– The Studio Albums 1992-2003 (8 CD Box Set 2014)[FLAC] - Naftamusic7. Tr3s Lunas (2002-2014)9 - Tr3sLunas.wav

Pre-gap length 0:00:01.43

Peak level 98.8 %
Extraction speed 3.2 X
Track quality 100.0 %
Test CRC A47647F4
Copy CRC A47647F4
Track not present in AccurateRip database
Copy OK

Track 10

Filename E:Mike Oldfield ‎– The Studio Albums 1992-2003 (8 CD Box Set 2014)[FLAC] - Naftamusic7. Tr3s Lunas (2002-2014)10 - Daydream.wav

Peak level 98.8 %
Extraction speed 2.9 X
Track quality 100.0 %
Test CRC 97C4443A
Copy CRC 97C4443A
Track not present in AccurateRip database
Copy OK

Track 11

Filename E:Mike Oldfield ‎– The Studio Albums 1992-2003 (8 CD Box Set 2014)[FLAC] - Naftamusic7. Tr3s Lunas (2002-2014)11 - ThouArtIn Heaven.wav

Pre-gap length 0:00:00.64

Peak level 98.2 %
Extraction speed 3.5 X
Track quality 100.0 %
Test CRC DAEC3F79
Copy CRC DAEC3F79
Track not present in AccurateRip database
Copy OK

Track 12

Filename E:Mike Oldfield ‎– The Studio Albums 1992-2003 (8 CD Box Set 2014)[FLAC] - Naftamusic7. Tr3s Lunas (2002-2014)12 - Sirius.wav

Peak level 98.8 %
Extraction speed 3.7 X
Track quality 100.0 %
Test CRC 67D95B61
Copy CRC 67D95B61
Track not present in AccurateRip database
Copy OK

Track 13

Filename E:Mike Oldfield ‎– The Studio Albums 1992-2003 (8 CD Box Set 2014)[FLAC] - Naftamusic7. Tr3s Lunas (2002-2014)13 - NoMansLand (Reprise).wav

Peak level 96.0 %
Extraction speed 3.5 X
Track quality 100.0 %
Test CRC F6413ED8
Copy CRC F6413ED8
Track not present in AccurateRip database
Copy OK None of the tracks are present in the AccurateRip database

No errors occurred

End of status report

DR Log
foobar2000 1.2.9 / Dynamic Range Meter 1.1.1
log date: 2014-11-02 10:37:44

--------------------------------------------------------------------------------
Analyzed: Mike Oldfield / Tr3s Lunas
--------------------------------------------------------------------------------

DR Peak RMS Duration Track
--------------------------------------------------------------------------------
DR11 -0.10 dB -14.09 dB 3:59 01-Misty
DR9 -0.10 dB -12.17 dB 6:08 02-NoMansLand
DR8 -0.10 dB -11.06 dB 4:39 03-ReturnToTheOrigin
DR11 -2.02 dB -15.86 dB 2:19 04-Landfall
DR8 -0.15 dB -11.78 dB 4:32 05-Viper
DR11 -0.10 dB -13.08 dB 3:41 06-TurtleIsland
DR8 -0.10 dB -10.95 dB 4:22 07-ToBeFree
DR13 -0.57 dB -15.38 dB 3:46 08-FireFly
DR8 -0.10 dB -11.13 dB 4:35 09-Tr3sLunas
DR10 -0.10 dB -14.09 dB 2:15 10-Daydream
DR8 -0.16 dB -11.84 dB 5:23 11-ThouArtIn Heaven
DR8 -0.10 dB -11.76 dB 5:47 12-Sirius
DR10 -0.35 dB -14.50 dB 2:54 13-NoMansLand (Reprise)
--------------------------------------------------------------------------------

Number of tracks: 13
Official DR value: DR10

Samplerate: 44100 Hz
Channels: 2
Bits per sample: 16
Bitrate: 837 kbps
Codec: FLAC

CUETools Log
[CUETools log; Date: 02.11.2014 10:38:23; Version: 2.1.4]
[CTDB TOCID: sY_V3ojbdOre4YI9s9D95ejDUtQ-] found.
Track | CTDB Status
1 | (3/3) Accurately ripped
2 | (3/3) Accurately ripped
3 | (3/3) Accurately ripped
4 | (3/3) Accurately ripped
5 | (3/3) Accurately ripped
6 | (3/3) Accurately ripped
7 | (3/3) Accurately ripped
8 | (3/3) Accurately ripped
9 | (3/3) Accurately ripped
10 | (3/3) Accurately ripped
11 | (3/3) Accurately ripped
12 | (3/3) Accurately ripped
13 | (3/3) Accurately ripped
[AccurateRip ID: 001a7b5e-0106d849-af0cbb0d] disk not present in database.

Track Peak [ CRC32 ] [W/O NULL] [ LOG ]
-- 98,8 [989B005A] [4FA8243F]
01 98,8 [F2668201] [3924B23C] CRC32
02 98,8 [A380A4B5] [C2658992] CRC32
03 98,8 [751CEBA7] [C81E3166] CRC32
04 79,2 [3EFDCB79] [41DC0C4B] CRC32
05 98,2 [9B5C42D4] [0B815FDB] CRC32
06 98,8 [9523A62B] [C5555ACF] CRC32
07 98,8 [A191F187] [850CEB5F] CRC32
08 93,6 [F2653F34] [99068D8A] CRC32
09 98,8 [A47647F4] [1F5966BC] CRC32
10 98,8 [97C4443A] [173B8501] CRC32
11 98,2 [DAEC3F79] [6060AC1F] CRC32
12 98,8 [67D95B61] [666BE21A] CRC32
13 96,0 [F6413ED8] [55618FB7] CRC32

Mike Oldfield - Tr3s Lunas (2002) back

All thanks go to error404




Free Full Download Mike Oldfield - Tr3s Lunas (2002) form MediaFire.com link RapidShare, ifile.it, Uploaded.to, Zippyshare, FileSonic, turbobit.net, ul.to, ORON, DepositFiles, hotfile.com, rapidgator.net, letitbit.net, extabit.com, filefactory.com. Mike Oldfield - Tr3s Lunas (2002) Torrent Download with keygen, crack, serial, dvdrip, hdrip, HD, 720p, 2014, 2015
Mike Oldfield | Mike Oldfield Incantations | Mike Oldfield Two Sides M A | Mike Oldfield Qe Cd Deluxe Edition Mp Flac | F L Fandango Trece Lunas Mediafire | Sally Oldfield Cantadora | Torrent Terry Oldfield Journey Into Space | Terry Oldfield Journey Into Space Download | Five Greatest Hits 2002 | Artcut 2002 Download

Please login or register

Dear visitor, you are browsing our website as Guest. We strongly recommend you to register and login to view hidden contents.

Comments (0)