Torrent Downloads - TorrentHuge



Do not remember me!

 
» » » Taurus - 3 Studio Albums (2010-2013)

Taurus - 3 Studio Albums (2010-2013)


Taurus - 3 Studio Albums (2010-2013)
EAC Rip | FLAC (image+.cue+log) - 946 MB | MP3 CBR 320 kbps (LAME 3.93) - 418 MB | Covers included
Genre: Instrumental Progressive Rock | RAR 3% Rec. | Label: Mylodon Records

Taurus is the name used by the talented Chilean multi-instrumentalist Claudio Momberg who after a successful career in bands as Seti, Caamora and Subterra released three excellent albums edited by Mylodon Records. Like Mike Oldfield and Vangelis before him, Claudio plays all the instruments, but to make it even more impressive, also produced all the albums. It was not a surprise to discover that his music was fluid and elegant with a unique style product of his dexterity with all the instruments. Recommended for fans of orchestral and instrumental Prog.



Taurus - Opus I: Dimensions (2010)
EAC Rip | FLAC (image+.cue+log) - 342 MB | MP3 CBR 320 kbps (LAME 3.93) - 143 MB | Covers (13 mb) included
Genre: Instrumental Progressive Rock | RAR 3% Rec. | Label: Mylodon Records (MyloCD080)

Tracklist:
01. Air
02. Structures
03. Solids
04. Tension

Total time: 55:15

EAC log
Exact Audio Copy V1.0 beta 3 from 29. August 2011

Отчёт EAC об извлечении, выполненном 10. октября 2013, 4:42

TAURUS (Seti Related Search No.1) / Opus I - Dimensions

Дисковод: ASUS BW-12D1S-U Adapter: 1 ID: 1

Режим чтения : Достоверность
Использование точного потока : Да
Отключение кэша аудио : Да
Использование указателей C2 : Нет

Коррекция смещения при чтении : 667
Способность читать области Lead-in и Lead-out : Нет
Заполнение пропущенных сэмплов тишиной : Да
Удаление блоков с тишиной в начале и конце : Нет
При вычислениях CRC использовались нулевые сэмплы : Да
Интерфейс : Встроенный Win32-интерфейс для Win NT/2000

Выходной формат : Пользовательский кодировщик
Выбранный битрейт : 1024 kBit/s
Качество : Высокий
Добавление ID3-тега : Нет
Утилита сжатия : C:Program Files (x86)Exact Audio CopyFlacflac.exe
Дополнительные параметры : -V -8 -T "Date=%year%" -T "Genre=%genre%" %source% TOC извлечённого CD

Трек | Старт | Длительность | Начальный сектор | Конечный сектор
---------------------------------------------------------------------
1 | 0:00.00 | 24:04.18 | 0 | 108317
2 | 24:04.18 | 15:54.63 | 108318 | 179930
3 | 39:59.06 | 6:15.22 | 179931 | 208077
4 | 46:14.28 | 9:00.40 | 208078 | 248617 Характеристики диапазона извлечения и сообщения об ошибках

Выбранный диапазон

Имя файла E:cdTaurus (Discography)Taurus (2010) - Opus 1- DimensionsTAURUS (Seti Related Search No.1) - Opus I - Dimensions.wav

Пиковый уровень 97.1 %
Скорость извлечения 1.8 X
Качество диапазона 100.0 %
CRC теста 6D7DD0E2
CRC копии 6D7DD0E2
Копирование... OK

Ошибок не произошло


AccurateRip: сводка

Трек 1 : извлечено точно (доверие 1) [F2B41D8C] (AR v2)
Трек 2 : извлечено точно (доверие 1) [CB12C1ED] (AR v2)
Трек 3 : извлечено точно (доверие 1) [1FD51447] (AR v2)
Трек 4 : извлечено точно (доверие 1) [BF0595A8] (AR v2)

Все треки извлечены точно

Конец отчёта

CUETools log
[CUETools log; Date: 03.09.2014 14:45:58; Version: 2.1.4]
[CTDB TOCID: AaoW2biJ6QvkuqnRReAlXn1Lh5c-] found.
Track | CTDB Status
1 | (1/1) Accurately ripped
2 | (1/1) Accurately ripped
3 | (1/1) Accurately ripped
4 | (1/1) Accurately ripped
[AccurateRip ID: 000b5df1-002b35d8-2e0cf204] found.
Track [ CRC | V2 ] Status
01 [202f2fc5|f2b41d8c] (0+2/2) Accurately ripped
02 [b8b52e7c|cb12c1ed] (0+2/2) Accurately ripped
03 [16de8a57|1fd51447] (0+2/2) Accurately ripped
04 [e1d7539a|bf0595a8] (0+2/2) Accurately ripped

Track Peak [ CRC32 ] [W/O NULL] [ LOG ]
-- 97,1 [6D7DD0E2] [BD91B181] CRC32
01 94,3 [820D2D2F] [D1E1FC58]
02 95,6 [0FD6EE59] [7013A004]
03 91,4 [A04DC0FD] [479B8A38]
04 97,1 [5101945E] [AB30F801]


Taurus - Opus II: Impressions (2011)
EAC Rip | FLAC (image+.cue+log) - 272 MB | MP3 CBR 320 kbps (LAME 3.93) - 134 MB | Covers (13 mb) included
Genre: Instrumental Progressive Rock | RAR 3% Rec. | Label: Mylodon Records (MyloCD083)

Tracklist:
01. Iron
02. Protocols
03. Hammers
04. Horizon
05. Hybrids
06. Dirac
07. Weights (5:12)
08. Breeze
09. Phoenix II
10. Borgan

Total time: 51:00

EAC log
Exact Audio Copy V1.0 beta 3 from 29. August 2011

Отчёт EAC об извлечении, выполненном 10. октября 2013, 5:58

Taurus / Opus II: Impressions

Дисковод: ASUS BW-12D1S-U Adapter: 1 ID: 1

Режим чтения : Достоверность
Использование точного потока : Да
Отключение кэша аудио : Да
Использование указателей C2 : Нет

Коррекция смещения при чтении : 667
Способность читать области Lead-in и Lead-out : Нет
Заполнение пропущенных сэмплов тишиной : Да
Удаление блоков с тишиной в начале и конце : Нет
При вычислениях CRC использовались нулевые сэмплы : Да
Интерфейс : Встроенный Win32-интерфейс для Win NT/2000

Выходной формат : Пользовательский кодировщик
Выбранный битрейт : 1024 kBit/s
Качество : Высокий
Добавление ID3-тега : Нет
Утилита сжатия : C:Program Files (x86)Exact Audio CopyFlacflac.exe
Дополнительные параметры : -V -8 -T "Date=%year%" -T "Genre=%genre%" %source% TOC извлечённого CD

Трек | Старт | Длительность | Начальный сектор | Конечный сектор
---------------------------------------------------------------------
1 | 0:00.00 | 7:06.74 | 0 | 32023
2 | 7:06.74 | 4:01.56 | 32024 | 50154
3 | 11:08.55 | 4:19.41 | 50155 | 69620
4 | 15:28.21 | 3:34.04 | 69621 | 85674
5 | 19:02.25 | 5:56.52 | 85675 | 112426
6 | 24:59.02 | 2:07.68 | 112427 | 122019
7 | 27:06.70 | 5:12.33 | 122020 | 145452
8 | 32:19.28 | 6:54.39 | 145453 | 176541
9 | 39:13.67 | 5:17.06 | 176542 | 200322
10 | 44:30.73 | 6:28.52 | 200323 | 229474 Характеристики диапазона извлечения и сообщения об ошибках

Выбранный диапазон

Имя файла E:cdTaurus (Discography)Taurus (2011) - Opus 2 - ImpressionsTaurus - Opus II- Impressions.wav

Пиковый уровень 100.0 %
Скорость извлечения 1.8 X
Качество диапазона 100.0 %
CRC теста 4D74B7D7
CRC копии 4D74B7D7
Копирование... OK

Ошибок не произошло


AccurateRip: сводка

Трек 1 : извлечено точно (доверие 2) [F866A499] (AR v2)
Трек 2 : извлечено точно (доверие 2) [29E280A6] (AR v2)
Трек 3 : извлечено точно (доверие 2) [F6C48703] (AR v2)
Трек 4 : извлечено точно (доверие 2) [2AB147B6] (AR v2)
Трек 5 : извлечено точно (доверие 2) [2790023F] (AR v2)
Трек 6 : извлечено точно (доверие 2) [A4C64BDB] (AR v2)
Трек 7 : извлечено точно (доверие 2) [3C485FC8] (AR v2)
Трек 8 : извлечено точно (доверие 2) [2C0B9B4B] (AR v2)
Трек 9 : извлечено точно (доверие 2) [7D99CB49] (AR v2)
Трек 10 : извлечено точно (доверие 2) [F4927A2D] (AR v2)

Все треки извлечены точно

Конец отчёта

CUETools log
[CUETools log; Date: 03.09.2014 14:50:47; Version: 2.1.4]
[CTDB TOCID: qC80poKVxBvzo_DegPVJfqytsHk-] found.
Track | CTDB Status
1 | (1/1) Accurately ripped
2 | (1/1) Accurately ripped
3 | (1/1) Accurately ripped
4 | (1/1) Accurately ripped
5 | (1/1) Accurately ripped
6 | (1/1) Accurately ripped
7 | (1/1) Accurately ripped
8 | (1/1) Accurately ripped
9 | (1/1) Accurately ripped
10 | (1/1) Accurately ripped
[AccurateRip ID: 0012ac23-009477f0-7a0bf30a] found.
Track [ CRC | V2 ] Status
01 [0bf88cb0|f866a499] (0+3/3) Accurately ripped
02 [bc41ccf3|29e280a6] (0+3/3) Accurately ripped
03 [8201543b|f6c48703] (0+3/3) Accurately ripped
04 [6fbffee9|2ab147b6] (0+3/3) Accurately ripped
05 [fd7f17eb|2790023f] (0+3/3) Accurately ripped
06 [c00c0050|a4c64bdb] (0+3/3) Accurately ripped
07 [f96e0bbf|3c485fc8] (0+3/3) Accurately ripped
08 [8b0f9cbc|2c0b9b4b] (0+3/3) Accurately ripped
09 [b388cd43|7d99cb49] (0+3/3) Accurately ripped
10 [f77d5e46|f4927a2d] (0+3/3) Accurately ripped

Track Peak [ CRC32 ] [W/O NULL] [ LOG ]
-- 100,0 [4D74B7D7] [178CEE66] CRC32
01 76,5 [C08765C8] [14763765]
02 71,7 [78A83A9F] [C61CC1D8]
03 87,0 [AF064607] [9E700C77]
04 59,4 [B6084B0C] [809808D7]
05 87,7 [CE3A0653] [2CD47542]
06 80,4 [E265495A] [F31345A3]
07 100,0 [69FC749D] [1954CDC2]
08 78,8 [764F4AC6] [5CC88712]
09 91,5 [ED4C8567] [56A7F896]
10 76,4 [E811F599] [D2FE54D7]


Taurus - Opus III: Research (2013)
EAC Rip | FLAC (image+.cue+log) - 332 MB | MP3 CBR 320 kbps (LAME 3.93) - 141 MB | Covers (12 mb) included
Genre: Instrumental Progressive Rock | RAR 3% Rec. | Label: Mylodon Records (MyloCD098)

Tracklist:
01. Tranquility
02. Pacific
03. Nord
04. Mediterranean
05. Tuamotu
06. Empedocles
07. Tyrrhenian
08. Serenitatis
09. Kermadec

Total time: 54:28

EAC log
Exact Audio Copy V1.0 beta 3 from 29. August 2011

Отчёт EAC об извлечении, выполненном 10. октября 2013, 8:24

Taurus (Seti related Search No.1) / Opus III - Research

Дисковод: ASUS BW-12D1S-U Adapter: 1 ID: 1

Режим чтения : Достоверность
Использование точного потока : Да
Отключение кэша аудио : Да
Использование указателей C2 : Нет

Коррекция смещения при чтении : 667
Способность читать области Lead-in и Lead-out : Нет
Заполнение пропущенных сэмплов тишиной : Да
Удаление блоков с тишиной в начале и конце : Нет
При вычислениях CRC использовались нулевые сэмплы : Да
Интерфейс : Встроенный Win32-интерфейс для Win NT/2000

Выходной формат : Пользовательский кодировщик
Выбранный битрейт : 1024 kBit/s
Качество : Высокий
Добавление ID3-тега : Нет
Утилита сжатия : C:Program Files (x86)Exact Audio CopyFlacflac.exe
Дополнительные параметры : -V -8 -T "Date=%year%" -T "Genre=%genre%" %source% TOC извлечённого CD

Трек | Старт | Длительность | Начальный сектор | Конечный сектор
---------------------------------------------------------------------
1 | 0:00.00 | 4:21.38 | 0 | 19612
2 | 4:21.38 | 13:09.53 | 19613 | 78840
3 | 17:31.16 | 4:35.13 | 78841 | 99478
4 | 22:06.29 | 5:11.00 | 99479 | 122803
5 | 27:17.29 | 5:20.10 | 122804 | 146813
6 | 32:37.39 | 7:09.16 | 146814 | 179004
7 | 39:46.55 | 4:55.45 | 179005 | 201174
8 | 44:42.25 | 6:02.19 | 201175 | 228343
9 | 50:44.44 | 3:43.48 | 228344 | 245116 Характеристики диапазона извлечения и сообщения об ошибках

Выбранный диапазон

Имя файла E:cdTaurus (Discography)Taurus (2013) - Opus 3 - ResearchTaurus (Seti related Search No.1) - Opus III - Research.wav

Пиковый уровень 100.0 %
Скорость извлечения 1.8 X
Качество диапазона 99.9 %
CRC теста 4FD8A757
CRC копии 4FD8A757
Копирование... OK

Ошибок не произошло


AccurateRip: сводка

Трек 1 : извлечено точно (доверие 2) [BCBA0231] (AR v2)
Трек 2 : извлечено точно (доверие 2) [B1474D8A] (AR v2)
Трек 3 : извлечено точно (доверие 2) [DE5E6EA3] (AR v2)
Трек 4 : извлечено точно (доверие 2) [CE2FD7A2] (AR v2)
Трек 5 : извлечено точно (доверие 2) [26463949] (AR v2)
Трек 6 : извлечено точно (доверие 2) [650A8234] (AR v2)
Трек 7 : извлечено точно (доверие 2) [B7E3CEED] (AR v2)
Трек 8 : извлечено точно (доверие 2) [062B2069] (AR v2)
Трек 9 : извлечено точно (доверие 2) [32DCEE4F] (AR v2)

Все треки извлечены точно

Конец отчёта

CUETools log
[CUETools log; Date: 03.09.2014 14:48:40; Version: 2.1.4]
[CTDB TOCID: husB7JtCFfE8cH1CY03BBXdMgZ0-] found.
Track | CTDB Status
1 | (1/1) Accurately ripped
2 | (1/1) Accurately ripped
3 | (1/1) Accurately ripped
4 | (1/1) Accurately ripped
5 | (1/1) Accurately ripped
6 | (1/1) Accurately ripped
7 | (1/1) Accurately ripped
8 | (1/1) Accurately ripped
9 | (1/1) Accurately ripped
[AccurateRip ID: 001428e8-009186f7-850cc409] found.
Track [ CRC | V2 ] Status
01 [e6a70619|bcba0231] (0+4/4) Accurately ripped
02 [7c42b0fc|b1474d8a] (0+4/4) Accurately ripped
03 [864d0abd|de5e6ea3] (0+4/4) Accurately ripped
04 [1bf7acbd|ce2fd7a2] (0+4/4) Accurately ripped
05 [cf14dbdc|26463949] (0+4/4) Accurately ripped
06 [70cc3e88|650a8234] (0+4/4) Accurately ripped
07 [b86eb2b7|b7e3ceed] (0+4/4) Accurately ripped
08 [885f4dba|062b2069] (0+4/4) Accurately ripped
09 [a0ab79b0|32dcee4f] (0+4/4) Accurately ripped

Track Peak [ CRC32 ] [W/O NULL] [ LOG ]
-- 100,0 [4FD8A757] [19E9C23C] CRC32
01 98,0 [D79757AF] [A2A0D5C6]
02 98,9 [8285E918] [950F285F]
03 100,0 [211480EA] [14506F1B]
04 94,4 [3CC45705] [E0D343EC]
05 98,0 [C2DAC415] [FF5A86E2]
06 98,2 [AFC28F5B] [3E1C52C4]
07 77,7 [7F2B3165] [0A8169F1]
08 98,5 [D8155758] [61ECB017]
09 96,7 [CCCD9E12] [D912AA5E]

Thanks to Pasheka-Pacheka

Download:

Taurus - Opus I: Dimensions (2010)

LOSSLESS:

Filepost.com
_______________

MP3 320 kbps:

Filepost.com
______________________________________

Taurus - Opus II: Impressions (2011)

LOSSLESS:

Filepost.com
_______________

MP3 320 kbps:

Filepost.com
______________________________________

Taurus - Opus III: Research (2013)

LOSSLESS:

Filepost.com
_______________

MP3 320 kbps:

Filepost.com


Free Full Download Taurus - 3 Studio Albums (2010-2013) form MediaFire.com link RapidShare, ifile.it, Uploaded.to, Zippyshare, FileSonic, turbobit.net, ul.to, ORON, DepositFiles, hotfile.com, rapidgator.net, letitbit.net, extabit.com, filefactory.com. Taurus - 3 Studio Albums (2010-2013) Torrent Download with keygen, crack, serial, dvdrip, hdrip, HD, 720p, 2014, 2015
S De Studio Albums Deluxe Editions Cd Dvd | Cerrone Discography Studio Albums | Massive Attack Studio Albums Collection | Lindisfarne Alan Hull Studio Albums | Susanna Hoffs Studio Albums Collection | Qen Anniversary Studio Albums With Bonus Cd Japan Shm Cd Remaster | Santana Discography Studio Albums Artwork List | Toto All Studio Albums Discography Kbps All Cd Covers Torrent | Apaixtoi Net 2010 05 Eurovision 2013 20 Html M 1 | Alternate Masters Complete Studio Outtakes 2010 Cue

Please login or register

Dear visitor, you are browsing our website as Guest. We strongly recommend you to register and login to view hidden contents.

Comments (0)