Torrent Downloads - TorrentHuge



Do not remember me!

 
» » » Mike Oldfield - Tubular Bells 2003 (2014)

Mike Oldfield - Tubular Bells 2003 (2014)

Mike Oldfield - Tubular Bells 2003 (2014) front

Mike Oldfield - Tubular Bells 2003 (2014)
EAC | Flac(Image) + Cue + Log & M4A(Tracks)
2014 | Oldfield Music Limited, 825646233298/8 | ~ 290 or 294 Mb | Scans Included
Ambient / New Age / Prog Rock

Tubular Bells 2003 is an album by Mike Oldfield, released in 2003 by Warner Music. It is a complete re-recording of Oldfield's 1973 album debut Tubular Bells, which had been released 30 years earlier.

~ wiki

Perfectionist Mike Oldfield (unhappy, apparently, at the odd bum note on the indubitably classic original) utilizes updated studio techniques to re-record his flagship classical/folk/rock instrumental masterwork in its bar-for-bar entirety. It may be true that the Bayeux Tapestry would look pretty good if someone re-embroidered all 230 feet of it on a modern sewing machine, but that's hardly the point. Surely, the original Tubular Bells, which recorded 16 million in sales, has more than enough going for it. Although the production here is fatter and brighter, playing "spot the difference" between this version and the one that continues to pay for Richard Branson's hot-air balloons may require levels of diligence and dedication bordering on pottiness. There are minor distinctions, including louder bass guitar, better sounding bagpipes, Sally Oldfield (presumably) joining Mike for a grunt on the amusing "Caveman" section, and John Cleese playing master of ceremonies on "Finale," saving his best "pining for the fjords" voice for the announcement of the arrival of the "double speed guitar."

by Kevin Maidment

Mike Oldfield - Tubular Bells 2003 (2014):

Mike Oldfield - Tubular Bells 2003 (2014) cd

Tracklist:

01. Part One - Introduction (00:05:52)
02. Part One - Fast Guitars (00:01:04)
03. Part One - Basses (00:00:47)
04. Part One - Latin (00:02:19)
05. Part One - A Minor Tune (00:01:21)
06. Part One - Blues (00:02:40)
07. Part One - Thrash (00:00:44)
08. Part One - Jazz (00:00:48)
09. Part One - Ghost Bells (00:00:31)
10. Part One - Russian (00:00:44)
11. Part One - Finale (00:08:33)
12. Part Two - Harmonics (00:05:12)
13. Part Two - Peace (00:03:31)
14. Part Two - Bagpipe Guitars (00:03:08)
15. Part Two - Caveman (00:04:33)
16. Part Two - Ambient Guitars (00:05:10)
17. Part Two - The Sailor's Hornpipe (00:01:45)

EAC Log
Exact Audio Copy V1.0 beta 3 from 29. August 2011

EAC extraction logfile from 25. October 2014, 23:59

Mike Oldfield / Tubular Bells 2003

Used drive : PLEXTOR DVDR PX-891SA Adapter: 1 ID: 0

Read mode : Secure
Utilize accurate stream : Yes
Defeat audio cache : Yes
Make use of C2 pointers : No

Read offset correction : 6
Overread into Lead-In and Lead-Out : No
Fill up missing offset samples with silence : Yes
Delete leading and trailing silent blocks : No
Null samples used in CRC calculations : Yes
Used interface : Native Win32 interface for Win NT & 2000
Gap handling : Appended to previous track

Used output format : User Defined Encoder
Selected bitrate : 1024 kBit/s
Quality : High
Add ID3 tag : No
Command line compressor : C:Program Files (x86)Exact Audio CopyFLACFLAC.EXE
Additional command line options : -0 -V -T "ARTIST=%artist%" -T "TITLE=%title%" -T "ALBUM=%albumtitle%" -T "DATE=%year%" -T "TRACKNUMBER=%tracknr%" -T "TOTALTRACKS=%numtracks%" -T "GENRE=%genre%" -T "COMMENT=Naftamusic Release!" %source% TOC of the extracted CD

Track | Start | Length | Start sector | End sector
---------------------------------------------------------
1 | 0:00.00 | 5:52.09 | 0 | 26408
2 | 5:52.09 | 1:03.74 | 26409 | 31207
3 | 6:56.08 | 0:46.55 | 31208 | 34712
4 | 7:42.63 | 2:18.53 | 34713 | 45115
5 | 10:01.41 | 1:21.04 | 45116 | 51194
6 | 11:22.45 | 2:40.13 | 51195 | 63207
7 | 14:02.58 | 0:44.07 | 63208 | 66514
8 | 14:46.65 | 0:48.01 | 66515 | 70115
9 | 15:34.66 | 0:30.41 | 70116 | 72406
10 | 16:05.32 | 0:44.22 | 72407 | 75728
11 | 16:49.54 | 8:32.71 | 75729 | 114199
12 | 25:22.50 | 5:12.29 | 114200 | 137628
13 | 30:35.04 | 3:30.65 | 137629 | 153443
14 | 34:05.69 | 3:07.72 | 153444 | 167540
15 | 37:13.66 | 4:33.09 | 167541 | 188024
16 | 41:47.00 | 5:10.12 | 188025 | 211286
17 | 46:57.12 | 1:44.46 | 211287 | 219132 Track 1

Filename E:Mike Oldfield ‎– The Studio Albums 1992-2003 (8 CD Box Set 2014)[FLAC] - Naftamusic8. Tubular Bells 2003 (2003-2014)1 - Part One - Introduction.wav

Pre-gap length 0:00:02.00

Peak level 97.1 %
Extraction speed 2.0 X
Track quality 100.0 %
Test CRC BDAA21E1
Copy CRC BDAA21E1
Cannot be verified as accurate (confidence 30) [AC4A65C6], AccurateRip returned [A03AD8B1] (AR v2)
Copy OK

Track 2

Filename E:Mike Oldfield ‎– The Studio Albums 1992-2003 (8 CD Box Set 2014)[FLAC] - Naftamusic8. Tubular Bells 2003 (2003-2014)2 - Part One - Fast Guitars.wav

Peak level 97.1 %
Extraction speed 1.5 X
Track quality 100.0 %
Test CRC 2B4147C3
Copy CRC 2B4147C3
Cannot be verified as accurate (confidence 30) [56AD6348], AccurateRip returned [70514D69] (AR v2)
Copy OK

Track 3

Filename E:Mike Oldfield ‎– The Studio Albums 1992-2003 (8 CD Box Set 2014)[FLAC] - Naftamusic8. Tubular Bells 2003 (2003-2014)3 - Part One - Basses.wav

Peak level 97.1 %
Extraction speed 1.4 X
Track quality 100.0 %
Test CRC 9B828F07
Copy CRC 9B828F07
Cannot be verified as accurate (confidence 30) [FA08E9A0], AccurateRip returned [5E3219AC] (AR v2)
Copy OK

Track 4

Filename E:Mike Oldfield ‎– The Studio Albums 1992-2003 (8 CD Box Set 2014)[FLAC] - Naftamusic8. Tubular Bells 2003 (2003-2014)4 - Part One - Latin.wav

Peak level 97.1 %
Extraction speed 2.0 X
Track quality 100.0 %
Test CRC F6BFA6DA
Copy CRC F6BFA6DA
Cannot be verified as accurate (confidence 30) [F7729D55], AccurateRip returned [8A7F8D3F] (AR v2)
Copy OK

Track 5

Filename E:Mike Oldfield ‎– The Studio Albums 1992-2003 (8 CD Box Set 2014)[FLAC] - Naftamusic8. Tubular Bells 2003 (2003-2014)5 - Part One - A Minor Tune.wav

Peak level 96.9 %
Extraction speed 1.8 X
Track quality 100.0 %
Test CRC 786116E8
Copy CRC 786116E8
Cannot be verified as accurate (confidence 31) [0355E9A5], AccurateRip returned [A0D163B8] (AR v2)
Copy OK

Track 6

Filename E:Mike Oldfield ‎– The Studio Albums 1992-2003 (8 CD Box Set 2014)[FLAC] - Naftamusic8. Tubular Bells 2003 (2003-2014)6 - Part One - Blues.wav

Peak level 97.1 %
Extraction speed 2.2 X
Track quality 100.0 %
Test CRC 64530B63
Copy CRC 64530B63
Cannot be verified as accurate (confidence 31) [B23EC636], AccurateRip returned [1EA79CDE] (AR v2)
Copy OK

Track 7

Filename E:Mike Oldfield ‎– The Studio Albums 1992-2003 (8 CD Box Set 2014)[FLAC] - Naftamusic8. Tubular Bells 2003 (2003-2014)7 - Part One - Thrash.wav

Peak level 97.1 %
Extraction speed 1.5 X
Track quality 100.0 %
Test CRC 59F547B2
Copy CRC 59F547B2
Cannot be verified as accurate (confidence 30) [5CFBF0CC], AccurateRip returned [A4F2E938] (AR v2)
Copy OK

Track 8

Filename E:Mike Oldfield ‎– The Studio Albums 1992-2003 (8 CD Box Set 2014)[FLAC] - Naftamusic8. Tubular Bells 2003 (2003-2014)8 - Part One - Jazz.wav

Peak level 97.1 %
Extraction speed 1.6 X
Track quality 100.0 %
Test CRC 8D4680D6
Copy CRC 8D4680D6
Cannot be verified as accurate (confidence 30) [566A5FBE], AccurateRip returned [50B13FA7] (AR v2)
Copy OK

Track 9

Filename E:Mike Oldfield ‎– The Studio Albums 1992-2003 (8 CD Box Set 2014)[FLAC] - Naftamusic8. Tubular Bells 2003 (2003-2014)9 - Part One - Ghost Bells.wav

Peak level 97.1 %
Extraction speed 0.5 X
Track quality 99.6 %
Test CRC 93602F53
Copy CRC 93602F53
Cannot be verified as accurate (confidence 31) [95E8DD71], AccurateRip returned [A1A74E2D] (AR v2)
Copy OK

Track 10

Filename E:Mike Oldfield ‎– The Studio Albums 1992-2003 (8 CD Box Set 2014)[FLAC] - Naftamusic8. Tubular Bells 2003 (2003-2014)10 - Part One - Russian.wav

Peak level 94.4 %
Extraction speed 1.6 X
Track quality 100.0 %
Test CRC F3E05C23
Copy CRC F3E05C23
Cannot be verified as accurate (confidence 30) [0AFC4D6E], AccurateRip returned [CF88C14A] (AR v2)
Copy OK

Track 11

Filename E:Mike Oldfield ‎– The Studio Albums 1992-2003 (8 CD Box Set 2014)[FLAC] - Naftamusic8. Tubular Bells 2003 (2003-2014)11 - Part One - Finale.wav

Peak level 97.1 %
Extraction speed 2.5 X
Track quality 99.9 %
Test CRC 38FD9D13
Copy CRC 38FD9D13
Cannot be verified as accurate (confidence 30) [8C37AB6D], AccurateRip returned [E1FA9FD1] (AR v2)
Copy OK

Track 12

Filename E:Mike Oldfield ‎– The Studio Albums 1992-2003 (8 CD Box Set 2014)[FLAC] - Naftamusic8. Tubular Bells 2003 (2003-2014)12 - Part Two - Harmonics.wav

Peak level 96.9 %
Extraction speed 2.4 X
Track quality 99.9 %
Test CRC 0268D6E2
Copy CRC 0268D6E2
Cannot be verified as accurate (confidence 31) [F61DA30D], AccurateRip returned [C0659E63] (AR v2)
Copy OK

Track 13

Filename E:Mike Oldfield ‎– The Studio Albums 1992-2003 (8 CD Box Set 2014)[FLAC] - Naftamusic8. Tubular Bells 2003 (2003-2014)13 - Part Two - Peace.wav

Peak level 96.6 %
Extraction speed 3.0 X
Track quality 100.0 %
Test CRC 73F2793B
Copy CRC 73F2793B
Cannot be verified as accurate (confidence 31) [A9CA16DF], AccurateRip returned [B708E210] (AR v2)
Copy OK

Track 14

Filename E:Mike Oldfield ‎– The Studio Albums 1992-2003 (8 CD Box Set 2014)[FLAC] - Naftamusic8. Tubular Bells 2003 (2003-2014)14 - Part Two - Bagpipe Guitars.wav

Peak level 97.1 %
Extraction speed 3.1 X
Track quality 100.0 %
Test CRC 49318608
Copy CRC 49318608
Cannot be verified as accurate (confidence 30) [C84F9220], AccurateRip returned [35BC3EEB] (AR v2)
Copy OK

Track 15

Filename E:Mike Oldfield ‎– The Studio Albums 1992-2003 (8 CD Box Set 2014)[FLAC] - Naftamusic8. Tubular Bells 2003 (2003-2014)15 - Part Two - Caveman.wav

Peak level 97.1 %
Extraction speed 3.4 X
Track quality 100.0 %
Test CRC 6A10A0E2
Copy CRC 6A10A0E2
Cannot be verified as accurate (confidence 30) [220D2B86], AccurateRip returned [52B7AC7C] (AR v2)
Copy OK

Track 16

Filename E:Mike Oldfield ‎– The Studio Albums 1992-2003 (8 CD Box Set 2014)[FLAC] - Naftamusic8. Tubular Bells 2003 (2003-2014)16 - Part Two - Ambient Guitars.wav

Peak level 97.4 %
Extraction speed 3.6 X
Track quality 100.0 %
Test CRC 41F26DC7
Copy CRC 41F26DC7
Cannot be verified as accurate (confidence 31) [04A3D116], AccurateRip returned [C6EAA32D] (AR v2)
Copy OK

Track 17

Filename E:Mike Oldfield ‎– The Studio Albums 1992-2003 (8 CD Box Set 2014)[FLAC] - Naftamusic8. Tubular Bells 2003 (2003-2014)17 - Part Two - The Sailor's Hornpipe.wav

Peak level 97.1 %
Extraction speed 1.7 X
Track quality 99.8 %
Test CRC 9D5C21CA
Copy CRC 9D5C21CA
Cannot be verified as accurate (confidence 30) [63744145], AccurateRip returned [6364A28E] (AR v2)
Copy OK No tracks could be verified as accurate
You may have a different pressing from the one(s) in the database

No errors occurred

End of status report

DR Log
foobar2000 1.2.9 / Dynamic Range Meter 1.1.1
log date: 2014-11-05 13:35:40

--------------------------------------------------------------------------------
Analyzed: Mike Oldfield / Tubular Bells 2003
--------------------------------------------------------------------------------

DR Peak RMS Duration Track
--------------------------------------------------------------------------------
DR11 -0.25 dB -14.38 dB 5:52 01-Part One - Introduction
DR8 -0.25 dB -10.55 dB 1:04 02-Part One - Fast Guitars
DR7 -0.25 dB -8.61 dB 0:47 03-Part One - Basses
DR8 -0.25 dB -12.13 dB 2:19 04-Part One - Latin
DR10 -0.27 dB -13.78 dB 1:21 05-Part One - A Minor Tune
DR10 -0.25 dB -11.91 dB 2:40 06-Part One - Blues
DR8 -0.25 dB -11.12 dB 0:44 07-Part One - Thrash
DR11 -0.25 dB -11.85 dB 0:48 08-Part One - Jazz
DR8 -0.25 dB -14.43 dB 0:31 09-Part One - Ghost Bells
DR10 -0.86 dB -17.26 dB 0:44 10-Part One - Russian
DR9 -0.25 dB -11.61 dB 8:33 11-Part One - Finale
DR11 -0.27 dB -14.36 dB 5:12 12-Part Two - Harmonics
DR11 -0.29 dB -17.29 dB 3:31 13-Part Two - Peace
DR10 -0.25 dB -11.99 dB 3:08 14-Part Two - Bagpipe Guitars
DR5 -0.25 dB -7.74 dB 4:33 15-Part Two - Caveman
DR11 -0.22 dB -15.78 dB 5:10 16-Part Two - Ambient Guitars
DR9 -0.25 dB -9.99 dB 1:45 17-Part Two - The Sailor's Hornpipe
--------------------------------------------------------------------------------

Number of tracks: 17
Official DR value: DR9

Samplerate: 44100 Hz
Channels: 2
Bits per sample: 16
Bitrate: 794 kbps
Codec: FLAC

CUETools Log
[CUETools log; Date: 30.10.2014 11:23:34; Version: 2.1.4]
[AccurateRip ID: 001a5d83-0154fa5f-f30b6911] found.
Track [ CRC | V2 ] Status
01 [bea1e912|ac4a65c6] (000+000/136) No match
02 [3879f49f|56ad6348] (000+000/140) No match
03 [db9f2303|fa08e9a0] (000+000/143) No match
04 [6943a54b|f7729d55] (000+000/140) No match
05 [2e7dad9b|0355e9a5] (000+000/142) No match
06 [389ea561|b23ec636] (000+000/142) No match
07 [f987ca8e|5cfbf0cc] (000+000/145) No match
08 [251f7dc1|566a5fbe] (000+000/143) No match
09 [43f9573f|95e8dd71] (000+000/144) No match
10 [36e23b42|0afc4d6e] (000+000/143) No match
11 [580c0a2d|8c37ab6d] (000+000/136) No match
12 [9cea356a|f61da30d] (000+000/139) No match
13 [2cc06285|a9ca16df] (000+000/142) No match
14 [f8019ec7|c84f9220] (000+000/141) No match
15 [15c94a71|220d2b86] (000+000/137) No match
16 [4900f80c|04a3d116] (000+000/140) No match
17 [de1914f1|63744145] (000+000/136) No match
Offsetted by -1352:
01 [25b2eea0] (014/136) Accurately ripped
02 [9b00c919] (014/140) Accurately ripped
03 [a195785e] (014/143) Accurately ripped
04 [91a282ad] (014/140) Accurately ripped
05 [b8f707eb] (014/142) Accurately ripped
06 [80aec60c] (014/142) Accurately ripped
07 [a103475e] (014/145) Accurately ripped
08 [1c3ac18a] (014/143) Accurately ripped
09 [d0b97cf0] (014/144) Accurately ripped
10 [ca5866fe] (014/143) Accurately ripped
11 [0455d923] (014/136) Accurately ripped
12 [26da064e] (014/139) Accurately ripped
13 [7d34800e] (014/142) Accurately ripped
14 [8aa4dcc3] (014/141) Accurately ripped
15 [16f165ea] (014/137) Accurately ripped
16 [5a39790c] (014/140) Accurately ripped
17 [e6dced2f] (014/136) Accurately ripped
Offsetted by -1175:
01 [a03ad8b1] (030/136) Accurately ripped
02 [70514d69] (030/140) Accurately ripped
03 [5e3219ac] (030/143) Accurately ripped
04 [8a7f8d3f] (030/140) Accurately ripped
05 [a0d163b8] (031/142) Accurately ripped
06 [1ea79cde] (031/142) Accurately ripped
07 [a4f2e938] (030/145) Accurately ripped
08 [50b13fa7] (030/143) Accurately ripped
09 [a1a74e2d] (031/144) Accurately ripped
10 [cf88c14a] (030/143) Accurately ripped
11 [e1fa9fd1] (030/136) Accurately ripped
12 [c0659e63] (031/139) Accurately ripped
13 [b708e210] (031/142) Accurately ripped
14 [35bc3eeb] (030/141) Accurately ripped
15 [52b7ac7c] (030/137) Accurately ripped
16 [c6eaa32d] (031/140) Accurately ripped
17 [6364a28e] (030/136) Accurately ripped
Offsetted by -759:
01 [ec16ef9c] (006/136) Accurately ripped
02 [a3504e43] (006/140) Accurately ripped
03 [d47b02a3] (006/143) Accurately ripped
04 [2e088657] (006/140) Accurately ripped
05 [14bd4773] (006/142) Accurately ripped
06 [52fcb67c] (006/142) Accurately ripped
07 [d728ac87] (006/145) Accurately ripped
08 [bbfafc46] (006/143) Accurately ripped
09 [e560bca7] (006/144) Accurately ripped
10 [82e25d80] (006/143) Accurately ripped
11 [a2b7cbca] (006/136) Accurately ripped
12 [a7eb70a6] (006/139) Accurately ripped
13 [05304043] (006/142) Accurately ripped
14 [cf98aea7] (006/141) Accurately ripped
15 [239b698a] (006/137) Accurately ripped
16 [89b9032a] (006/140) Accurately ripped
17 [295e284d] (006/136) Accurately ripped
Offsetted by -670:
01 [05a501c9] (025/136) Accurately ripped
02 [863cd251] (025/140) Accurately ripped
03 [034fa09b] (025/143) Accurately ripped
04 [dd090794] (025/140) Accurately ripped
05 [03f71b37] (025/142) Accurately ripped
06 [52b71721] (025/142) Accurately ripped
07 [a4d4f5a5] (025/145) Accurately ripped
08 [74063826] (025/143) Accurately ripped
09 [b07db896] (025/144) Accurately ripped
10 [4b983644] (025/143) Accurately ripped
11 [bff5b99e] (025/136) Accurately ripped
12 [c9c4d2df] (025/139) Accurately ripped
13 [7b6fec1b] (025/142) Accurately ripped
14 [7d4784c0] (025/141) Accurately ripped
15 [df37371e] (025/137) Accurately ripped
16 [fc56e7f4] (025/140) Accurately ripped
17 [8205d066] (025/136) Accurately ripped
Offsetted by -693:
01 [d1464ca4] (000/136) No match (V2 was not tested)
02 [8dd69298] (000/140) No match (V2 was not tested)
03 [44aedb40] (000/143) No match (V2 was not tested)
04 [a7f9b514] (000/140) No match (V2 was not tested)
05 [496a9cc9] (000/142) No match (V2 was not tested)
06 [18a66d9e] (000/142) No match (V2 was not tested)
07 [392b9b25] (000/145) No match (V2 was not tested)
08 [29b0e416] (000/143) No match (V2 was not tested)
09 [af39d0db] (000/144) No match (V2 was not tested)
10 [c97cc3b9] (000/143) No match (V2 was not tested)
11 [aedd2274] (000/136) No match (V2 was not tested)
12 [1d4ed3e4] (000/139) No match
13 [6bf94d15] (000/142) No match
14 [c1f427d5] (000/141) No match
15 [d0aa30b5] (000/137) No match
16 [782cb378] (000/140) No match
17 [bad57fdc] (000/136) No match
Offsetted by -675:
01 [5734941c] (000/136) No match (V2 was not tested)
02 [5d65c455] (000/140) No match (V2 was not tested)
03 [ef9fbf31] (000/143) No match (V2 was not tested)
04 [d1c5c066] (000/140) No match (V2 was not tested)
05 [d2f12b02] (000/142) No match (V2 was not tested)
06 [58128556] (000/142) No match (V2 was not tested)
07 [a957c5ac] (000/145) No match (V2 was not tested)
08 [679cc694] (000/143) No match (V2 was not tested)
09 [145d41bb] (000/144) No match (V2 was not tested)
10 [17608791] (000/143) No match (V2 was not tested)
11 [578e9eea] (000/136) No match (V2 was not tested)
12 [fb28ac19] (000/139) No match (V2 was not tested)
13 [569620f2] (000/142) No match (V2 was not tested)
14 [e88185ac] (000/141) No match (V2 was not tested)
15 [d74de2ff] (000/137) No match (V2 was not tested)
16 [137a1874] (000/140) No match (V2 was not tested)
17 [f2e6c48f] (000/136) No match (V2 was not tested)

Track Peak [ CRC32 ] [W/O NULL] [ LOG ]
-- 97,4 [6FC2A568] [E1D5AA3A]
01 97,1 [BDAA21E1] [EC624998] CRC32
02 97,1 [2B4147C3] [C67BCE17] CRC32
03 97,1 [9B828F07] [121403C7] CRC32
04 97,1 [F6BFA6DA] [E5A692E4] CRC32
05 96,9 [786116E8] [E45CC8E7] CRC32
06 97,1 [64530B63] [6C95A397] CRC32
07 97,1 [59F547B2] [36988B04] CRC32
08 97,1 [8D4680D6] [37561BDE] CRC32
09 97,1 [93602F53] [FE6A4E67] CRC32
10 94,4 [F3E05C23] [6C1137F8] CRC32
11 97,1 [38FD9D13] [07D9AC88] CRC32
12 96,9 [0268D6E2] [096E9C26] CRC32
13 96,6 [73F2793B] [801EAED3] CRC32
14 97,1 [49318608] [94A8CE6D] CRC32
15 97,1 [6A10A0E2] [B5F2671B] CRC32
16 97,4 [41F26DC7] [83596E9E] CRC32
17 97,1 [9D5C21CA] [14CA7813] CRC32

Mike Oldfield - Tubular Bells 2003 (2014) back

All thanks go to error404




Free Full Download Mike Oldfield - Tubular Bells 2003 (2014) form MediaFire.com link RapidShare, ifile.it, Uploaded.to, Zippyshare, FileSonic, turbobit.net, ul.to, ORON, DepositFiles, hotfile.com, rapidgator.net, letitbit.net, extabit.com, filefactory.com. Mike Oldfield - Tubular Bells 2003 (2014) Torrent Download with keygen, crack, serial, dvdrip, hdrip, HD, 720p, 2014, 2015
Mike Oldfield | Mike Oldfield Two Sides M A | Mike Oldfield Incantations | Mike Oldfield Qe Cd Deluxe Edition Mp Flac | Tubular Design Guide 24 Bolted Planar Connections | Sally Oldfield Cantadora | Terry Oldfield Journey Into Space Download | Torrent Terry Oldfield Journey Into Space | Micky Bells | Baby Bells Fit

Please login or register

Dear visitor, you are browsing our website as Guest. We strongly recommend you to register and login to view hidden contents.

Comments (0)