Torrent Downloads - TorrentHuge



Do not remember me!

 
» » » Gordon Giltrap - Elegy (1987)

Gordon Giltrap - Elegy (1987)


Gordon Giltrap - Elegy (1987)
EAC Rip | FLAC: IMAGE+CUE+LOG | 219.62 MB | MP3 CBR 320 kbps | 90.65 MB | SCANS | Time: 37:58
Genre: New Age, World, Fusion, Acoustic, Neofolk | Label: Prism Entertainment (Japan) | Cat.#: CD 101

The first truly solo album by British guitarist Gordon Giltrap (his previous releases had featured a full band backing him), 1987's Elegy is pitched somewhere between the folk fusion experimentation of John Fahey and Bert Jansch and the more direct, pop-oriented work of rockers like Steve Hackett or Anthony Phillips. Less somber than the title would suggest, Elegy is a lovely blend of acoustic and electric guitars (with some bass thrown in to anchor the tunes, keeping the whole from floating into the new age ether) playing delicate folk-inspired melodies that tend toward simplicity and lyricism instead of either flashy notes-per-minute showmanship or treacly sweetness. It's not hard to imagine that if Mike Oldfield hadn't been so enamored of his overdubbing equipment and multi-instrumental excessiveness that he might have come up with an album quite similar to this in the early '70s.


Gordon Giltrap | Wikipedia




Track Listing

1. In Unison (4:00)
2. A Christmas Carol (2:34)
3. The Mariners Tale (3:11)
4. Blue Lady (2:38)
5. Lucky (3:05)
6. Elegy (5:21)
7. Spring Dance (2:07)
8. The Poacher (4:24)
9. Sallies Song (3:12)
10. Storm Brewing (2:13)
11. Downwind (2:52)
12. Sleuth (2:21)

Produced by Gordon Giltrap

Gordon Giltrap:
Acoustic Guitar [Fylde Custom Acoustic Guitar, Harmony 12-string, Ovation Glen Campbell, Ovation Adamus 11], Electric Guitar [Framus Jan Akkerman, Tokai Super Series Strat, Hagstrom Highstrung Guitar], Electric Bass [Squire Precision Bass], Effects [Korg Effects], Strings [Albion Strings]

This album was originally recorded in 1986 on four track, with Gordon playing Acoustic 6 & 12 String Guitars, Electric Guitar and Bass Guitar. Everything is played on guitar, and where you think you hear violins they are, in fact, guitars as well, made using volume and chorus pedals.

EAC Log
Exact Audio Copy V1.0 beta 3 from 29. August 2011

Отчёт EAC об извлечении, выполненном 10. января 2013, 18:15

Gordon Giltrap / Elegy

Дисковод: TSSTcorpCD/DVDW SN-S082D Adapter: 1 ID: 0

Режим чтения : Достоверность
Использование точного потока : Да
Отключение кэша аудио : Да
Использование указателей C2 : Нет

Коррекция смещения при чтении : 6
Способность читать области Lead-in и Lead-out : Нет
Заполнение пропущенных сэмплов тишиной : Да
Удаление блоков с тишиной в начале и конце : Нет
При вычислениях CRC использовались нулевые сэмплы : Да
Интерфейс : Установленный внешний ASPI-интерфейс

Выходной формат : Пользовательский кодировщик
Выбранный битрейт : 896 kBit/s
Качество : Высокий
Добавление ID3-тега : Нет
Утилита сжатия : D:installEAC_1.0_beta_3_Portable_MultilingualAppEACFLACflac.exe
Дополнительные параметры : -6 -V -T "ARTIST=%artist%" -T "TITLE=%title%" -T "ALBUM=%albumtitle%" -T "DATE=%year%" -T "TRACKNUMBER=%tracknr%" -T "GENRE=%genre%" -T "COMMENT=%comment%" %hascover%--picture="%coverfile%"%hascover% %source% -o %dest% TOC извлечённого CD

Трек | Старт | Длительность | Начальный сектор | Конечный сектор
---------------------------------------------------------------------
1 | 0:00.00 | 4:00.38 | 0 | 18037
2 | 4:00.38 | 2:34.10 | 18038 | 29597
3 | 6:34.48 | 3:11.57 | 29598 | 43979
4 | 9:46.30 | 2:38.65 | 43980 | 55894
5 | 12:25.20 | 3:05.73 | 55895 | 69842
6 | 15:31.18 | 5:21.67 | 69843 | 93984
7 | 20:53.10 | 2:07.20 | 93985 | 103529
8 | 23:00.30 | 4:24.48 | 103530 | 123377
9 | 27:25.03 | 3:12.35 | 123378 | 137812
10 | 30:37.38 | 2:13.00 | 137813 | 147787
11 | 32:50.38 | 2:52.30 | 147788 | 160717
12 | 35:42.68 | 2:21.10 | 160718 | 171302 Характеристики диапазона извлечения и сообщения об ошибках

Выбранный диапазон

Имя файла K:BUDAGordon Giltrap - Elegy.wav

Пиковый уровень 100.0 %
Скорость извлечения 3.1 X
Качество диапазона 100.0 %
CRC теста F0241AC0
CRC копии F0241AC0
Копирование... OK

Ошибок не произошло


AccurateRip: сводка

Трек 1 : извлечено точно (доверие 1) [9D53D561] (AR v1)
Трек 2 : извлечено точно (доверие 1) [BFBD65EB] (AR v1)
Трек 3 : извлечено точно (доверие 1) [AA756325] (AR v1)
Трек 4 : извлечено точно (доверие 1) [B646EA03] (AR v1)
Трек 5 : извлечено точно (доверие 1) [49FE07CB] (AR v1)
Трек 6 : извлечено точно (доверие 1) [2DEF842A] (AR v1)
Трек 7 : извлечено точно (доверие 1) [4AD0C8D7] (AR v1)
Трек 8 : извлечено точно (доверие 1) [2AEBB167] (AR v1)
Трек 9 : извлечено точно (доверие 1) [C418735E] (AR v1)
Трек 10 : извлечено точно (доверие 1) [1DE27194] (AR v1)
Трек 11 : извлечено точно (доверие 1) [E379D72D] (AR v1)
Трек 12 : извлечено точно (доверие 1) [AD877342] (AR v1)

Все треки извлечены точно

Конец отчёта

==== Контрольная сумма отчёта 9C894951F06B07EAF7E7AFA618BC96753499CB42BCA559253B977FB03F11AD57 ====


Many thanks to the original uploader: Sany-4


*********
LOSSLESS

Uploaded | Turbobit

*******
MP3

Uploaded | Turbobit


Free Full Download Gordon Giltrap - Elegy (1987) form MediaFire.com link RapidShare, ifile.it, Uploaded.to, Zippyshare, FileSonic, turbobit.net, ul.to, ORON, DepositFiles, hotfile.com, rapidgator.net, letitbit.net, extabit.com, filefactory.com. Gordon Giltrap - Elegy (1987) Torrent Download with keygen, crack, serial, dvdrip, hdrip, HD, 720p, 2014, 2015
Angel Elegy | Hillbilly Elegy | Dur Dur Volume 5 1987 | Stevie Nicks Live At Red Rocks 1987 Dvdrip | Va A Very Special Christmas 1987 Eac Flac Tracks Cue Log 350 Mb Incl 5 Mp3 | Jon Gordon | Andrew M Gordon | Shep Gordon | Dexter Gordon

Please login or register

Dear visitor, you are browsing our website as Guest. We strongly recommend you to register and login to view hidden contents.

Comments (0)