Torrent Downloads - TorrentHuge



Do not remember me!

 
» » » Mike Oldfield - Ommadawn (1975) (Deluxe 2CD & DVD Edition) (2010) Re-upload

Mike Oldfield - Ommadawn (1975) (Deluxe 2CD & DVD Edition) (2010) Re-upload


Mike Oldfield - Ommadawn (1975) (Deluxe 2CD & DVD Edition) (2010)
EAC Rip | FLAC: IMAGE+CUE+LOG | 662.45 MB | MP3 CBR 320 kbps | 306.14 MB | SCANS | 149.27 MB
DVD5 | Video: | 16:9/4:3 (720x480) | Audio: DD 5.1, PCM 2.0 | 2 GB
Genre: Progressive Rock, Electronic, Experimental | Label: Universal/Mercury | Cat.#: 532 676-1

With this Deluxe Edition, Oldfield includes versions of Ommadawn previously lost, carefully selected bonus tracks, and DVD material to accompany specific tracks. Sharing the format of its two predecessors - Tubular Bells and Hergest Ridge, Oldfield stays loyal to his conceptual roots in Ommadawn, but incorporates musical styles from a far greater range of influences including folk, Celtic, and middle eastern sounds. As a result, Oldfield channels greater scope for musical development, defining Ommadawn as a creative peak in Oldfield's wide-ranging career.

Composing for traditional Celtic instruments such as the uilleann pipes, Oldfield uses Ommadawn as an outlet for spiritual investigation as much as expert musicianship. A master of songcraft, Oldfield layers guitars, pipes, drums and vocals to create a masterpiece pumped full of ethereal mysticism and described by one critic as "the musical equivalent of astral projection". Says Oldfield "I do not feel I am musician. I don't know... I create sounds, that are reflections of my emotions."


Mike Oldfield | Universal Music



DISC ONE

1. Ommadawn {Part One} (19:06)
2. Ommadawn {Part Two} / On Horseback (17:25)
2010 Stereo Mixes by Mike Oldfield - Previously Unreleased
3. In Dulce Jubilo (2:52)
Originally released as the A-side of single: Virgin VS 131
4. First Excursion (5:54)
5. Argiers (3:59)
6. Portsmouth (2:01)
Released as A-side of single: Virgin VS 163
4-6 originally released as part of the set: "Boxed" Virgin VBOX 1




DISC TWO

1. Ommadawn {Part One} (19:12)
2. Ommadawn {Part Two} / On Horseback (17:16)
Original 1975 Stereo Mixes
3. Ommadawn {Lost Version} (17:10)
1975 Demo - Previously Unreleased



DISC THREE: DVD

2010 5.1 Surround Sound Mixes by Mike Oldfield

1. Ommadawn {Part One} (19:06)
2. Ommadawn {Part Two} / On Horseback (17:21)

VISUAL CONTENT
3. In Dulce Jubilo (3:04)
4. Portsmouth (2:03)
Original Promotional Videos




Produced by Mike Oldfield

Mike Oldfield - acoustic bass, acoustic guitar, banjo, bouzouki, bodhrán, classical guitar, electric bass, electric guitars, electronic organs, glockenspiel, harp, mandolin, percussion, piano, spinet, steel guitar, synthesizers, twelve-string guitar and vocals

Herbie - Northumbrian bagpipes
Don Blakeson - trumpet
The Hereford City Band conducted by Leslie Penning - brass
Jabula (Julian Bahula, Ernest Mothle, Lucky Ranku, Eddie Tatane) - African drums
Pierre Moerlen - timpani
Paddy Moloney - uilleann pipes
William Murray - percussion
Sally Oldfield, Clodagh Simonds & Bridget St John - vocals
Terry Oldfield - panpipes
"The Penrhos Kids" (Abigail, Briony, Ivan and Jason Griffiths) - vocals on "On Horseback"
David Strange - cello



EAC Log CD1
Exact Audio Copy V1.0 beta 3 from 29. August 2011

EAC extraction logfile from 1. December 2012, 7:56

Mike Oldfield / Ommadawn (2CD+DVD, Deluxe Edition, 2010 Remaster) CD1

Used drive : ATAPI iHAS124 B Adapter: 2 ID: 0

Read mode : Secure
Utilize accurate stream : Yes
Defeat audio cache : Yes
Make use of C2 pointers : No

Read offset correction : 6
Overread into Lead-In and Lead-Out : No
Fill up missing offset samples with silence : Yes
Delete leading and trailing silent blocks : No
Null samples used in CRC calculations : Yes
Used interface : Native Win32 interface for Win NT & 2000

Used output format : User Defined Encoder
Selected bitrate : 1024 kBit/s
Quality : High
Add ID3 tag : No
Command line compressor : C:Program Files (x86)Exact Audio CopyFLACFLAC.EXE
Additional command line options : -8 -V -T "ARTIST=%artist%" -T "TITLE=%title%" -T "ALBUM=%albumtitle%" -T "DATE=%year%" -T "TRACKNUMBER=%tracknr%" -T "GENRE=%genre%" -T "PERFORMER=%albuminterpret%" -T "COMPOSER=%composer%" %haslyrics%--tag-from-file=LYRICS="%lyricsfile%"%haslyrics% -T "ALBUMARTIST=%albumartist%" -T "DISCNUMBER=%cdnumber%" -T "TOTALDISCS=%totalcds%" -T "TOTALTRACKS=%numtracks%" -T "COMMENT=%comment%" %source% -o %dest% TOC of the extracted CD

Track | Start | Length | Start sector | End sector
---------------------------------------------------------
1 | 0:00.00 | 19:06.24 | 0 | 85973
2 | 19:06.24 | 17:25.09 | 85974 | 164357
3 | 36:31.33 | 2:52.41 | 164358 | 177298
4 | 39:23.74 | 5:54.67 | 177299 | 203915
5 | 45:18.66 | 3:59.57 | 203916 | 221897
6 | 49:18.48 | 2:01.17 | 221898 | 230989 Range status and errors

Selected range

Filename G:CDMike Oldfield - Ommadawn (2010 Remaster) CD1.wav

Peak level 98.8 %
Extraction speed 5.7 X
Range quality 100.0 %
Test CRC 26F97F78
Copy CRC 26F97F78
Copy OK

No errors occurred


AccurateRip summary

Track 1 not present in database
Track 2 not present in database
Track 3 not present in database
Track 4 not present in database
Track 5 not present in database
Track 6 not present in database

None of the tracks are present in the AccurateRip database

End of status report

EAC Log CD2
Exact Audio Copy V1.0 beta 3 from 29. August 2011

EAC extraction logfile from 1. December 2012, 9:07

Mike Oldfield / Ommadawn (2010, Remastered, 2CD+DVD Deluxe Edition) CD2

Used drive : ATAPI iHAS124 B Adapter: 2 ID: 0

Read mode : Secure
Utilize accurate stream : Yes
Defeat audio cache : Yes
Make use of C2 pointers : No

Read offset correction : 6
Overread into Lead-In and Lead-Out : No
Fill up missing offset samples with silence : Yes
Delete leading and trailing silent blocks : No
Null samples used in CRC calculations : Yes
Used interface : Native Win32 interface for Win NT & 2000

Used output format : User Defined Encoder
Selected bitrate : 1024 kBit/s
Quality : High
Add ID3 tag : No
Command line compressor : C:Program Files (x86)Exact Audio CopyFLACFLAC.EXE
Additional command line options : -8 -V -T "ARTIST=%artist%" -T "TITLE=%title%" -T "ALBUM=%albumtitle%" -T "DATE=%year%" -T "TRACKNUMBER=%tracknr%" -T "GENRE=%genre%" -T "PERFORMER=%albuminterpret%" -T "COMPOSER=%composer%" %haslyrics%--tag-from-file=LYRICS="%lyricsfile%"%haslyrics% -T "ALBUMARTIST=%albumartist%" -T "DISCNUMBER=%cdnumber%" -T "TOTALDISCS=%totalcds%" -T "TOTALTRACKS=%numtracks%" -T "COMMENT=%comment%" %source% -o %dest% TOC of the extracted CD

Track | Start | Length | Start sector | End sector
---------------------------------------------------------
1 | 0:00.00 | 19:12.04 | 0 | 86403
2 | 19:12.04 | 17:16.54 | 86404 | 164157
3 | 36:28.58 | 17:10.30 | 164158 | 241437 Range status and errors

Selected range

Filename G:CDMike Oldfield - Ommadawn (2010 Remaster) CD2.wav

Peak level 98.8 %
Extraction speed 5.7 X
Range quality 100.0 %
Test CRC D56D2589
Copy CRC D56D2589
Copy OK

No errors occurred


AccurateRip summary

Track 1 accurately ripped (confidence 10) [07B59372] (AR v2)
Track 2 accurately ripped (confidence 10) [680DBB4C] (AR v2)
Track 3 accurately ripped (confidence 9) [50C17AF9] (AR v2)

All tracks accurately ripped

End of status report

DVDInfo
Enabled regions: 1, 2, 3, 4, 5, 6, 7, 8

VTS_01 :
Play Length: 00:19:06+00:17:21+00:36:27
Video: NTSC 16:9 (720x480) VBR, Auto Letterboxed
Audio:
English, AC3, 3/2 (L,C,R,SL,SR)+LFE ch, 448 kbps, Delay 0 mSec VTS_02 :
Play Length: 00:03:04+00:02:03+00:05:08
Video: NTSC 4:3 (720x480) VBR
Audio:
English, AC3, 2/0 (L,R) ch, 448 kbps, Delay 0 mSec * Menus Information *

VIDEO_TS Menu
Video:
NTSC 16:9 (720x480) VBR
Auto Letterboxed
Audio:
Not specified (Dolby AC3, 2 ch)
English Language Unit :
Title Menu

VTS_01 Menu
Video:
NTSC 16:9 (720x480) VBR
Auto Letterboxed
Audio:
Not specified (LinearPCM, 2 ch)
English Language Unit :
Root Menu
Subpicture Menu

VTS_02 Menu
Video:
NTSC 4:3 (720x480) VBR
English Language Unit :
Root Menu


Many thanks to the original uploader: gerrV
Many thanks to the original uploader: YWM2


*********
LOSSLESS

CD1 Uploaded
CD2 Uploaded

********
MP3

CD1 Uploaded
CD2 Uploaded

********
DVD

Filepost, 5 parts | Uploaded, 5 parts

********
SCANS (PNG | 300 dpi)

Uploaded

Password: pass


Free Full Download Mike Oldfield - Ommadawn (1975) (Deluxe 2CD & DVD Edition) (2010) Re-upload form MediaFire.com link RapidShare, ifile.it, Uploaded.to, Zippyshare, FileSonic, turbobit.net, ul.to, ORON, DepositFiles, hotfile.com, rapidgator.net, letitbit.net, extabit.com, filefactory.com. Mike Oldfield - Ommadawn (1975) (Deluxe 2CD & DVD Edition) (2010) Re-upload Torrent Download with keygen, crack, serial, dvdrip, hdrip, HD, 720p, 2014, 2015
Mike Oldfield Qe Cd Deluxe Edition Mp Flac | Mike Oldfield | Mike Oldfield Two Sides M A | Mike Oldfield Incantations | Michl Buble To Be Loved Deluxe Edition Upload | Free Download Mike Meyers Edition Pdf | Art History Volume 2 4Th Edition 2010 Stokstad Pdf | 3D Sexvilla2 Mod 2010 Professional Edition Share Onl Ine | Gidon Kremer Edition Lockenhaus Flac 2010

Please login or register

Dear visitor, you are browsing our website as Guest. We strongly recommend you to register and login to view hidden contents.

Comments (0)